<?xml version="1.0" standalone="no"?>
<!DOCTYPE svg PUBLIC "-//W3C//DTD SVG 1.1//EN" "http://www.w3.org/Graphics/SVG/1.1/DTD/svg11.dtd" >
<svg xmlns="http://www.w3.org/2000/svg">
<metadata>Generated by IcoMoon</metadata>
<defs>
<font id="icomoon" horiz-adv-x="1024">
<font-face units-per-em="1024" ascent="960" descent="-64" />
<missing-glyph horiz-adv-x="1024" />
<glyph unicode="&#x20;" horiz-adv-x="512" d="" />
<glyph unicode="&#xe900;" glyph-name="user-info" d="M512 874.667c-234.667 0-426.667-192-426.667-426.667s192-426.667 426.667-426.667c234.667 0 426.667 192 426.667 426.667s-192 426.667-426.667 426.667zM512 704c72.533 0 128-55.467 128-128s-55.467-128-128-128c-72.533 0-128 55.467-128 128s55.467 128 128 128zM512 106.667c-106.667 0-204.8 51.2-264.533 128 64 76.8 157.867 128 264.533 128s204.8-51.2 264.533-128c-59.733-76.8-157.867-128-264.533-128z" />
<glyph unicode="&#xe901;" glyph-name="ban-ca" d="M417.997 261.854c119.586-18.342 177.843 18.569 250.833 55.287-81.958 31.445-167.262 39.125-254.896 29.645-1.076-27.759 0.25-56.068 4.063-84.932zM401.264 597.315c65.863 5.825 131.877 0.401 198.074-17.334 1.92 60.701 19.746 117.345 49.882 170.855 1.984 3.471 2.125 7.962 0.354 11.585-1.762 3.633-5.129 5.781-8.691 5.565-102.327-7.018-181.982-64.4-239.619-170.671zM173.323 367.962l-83.802 66.027c-2.764 2.18-4.35 5.901-4.174 9.796 0.186 3.904 2.106 7.394 5.055 9.22 211.44 129.503 424.363 156.177 639.356 40.252 12.553-6.835 27.473-2.103 35.349 11.204 45.402 76.951 98.197 95.447 155.567 124.692 3.793 1.844 8.179 0.586 10.825-3.102 2.641-3.688 2.931-8.949 0.713-13.006-36.518-67.925-64.23-114.246-77.726-201.751 15.36-75.972 42.816-148.096 82.513-216.316 2.095-3.558 2.227-8.222 0.341-11.942-1.89-3.708-5.453-5.803-9.135-5.346-63.202 9.045-121.758 45.252-172.326 128.115-2.803 4.599-6.549 8.299-10.91 10.731-108.194 60.049-222.69 75.895-341.46 61.764-9.090-1.109-16.204-9.647-16.909-20.309-3.942-68.348 5.62-139.861 30.284-214.916 1.308-3.938 0.594-8.393-1.855-11.507-2.44-3.102-6.187-4.305-9.647-3.115-59.214 21.423-98.94 71.245-118.733 150.212l-88.765 69.943c19.33 15.014 44.206 24.179 75.121 27.251 7.652 0.768 13.329 8.644 12.68 17.591-0.649 8.951-7.392 15.599-15.045 14.839-41.312-4.122-73.312-18.138-97.317-40.329z" />
<glyph unicode="&#xe902;" glyph-name="da-ga" d="M241.273 715.616c16.743-42.108 42.483-75.073 88.114-89.582-0.22 0.511-0.39 0.931-0.536 1.289-0.255 0.626-0.433 1.066-0.665 1.478-10.508 18.646-17.515 38.499-20.489 59.715-2.082 14.873-2.017 29.785-0.478 44.712 1.585 15.373 4.756 30.453 7.926 45.532 1.407 6.692 2.814 13.387 4.082 20.104 3.833 20.314 7.062 40.684 6.219 61.455-0.169 4.123-0.555 8.242-0.94 12.359-0.172 1.831-0.343 3.663-0.495 5.493-0.064 0.788-0.136 1.577-0.225 2.55-0.039 0.428-0.082 0.898-0.128 1.413 0.446-0.309 0.828-0.566 1.169-0.794 0.565-0.38 1.013-0.681 1.441-1.010 18.2-14.134 29.137-32.818 33.236-55.258 1.687-9.237 2.347-18.678 3.005-28.093 0.125-1.783 0.25-3.565 0.381-5.344 1.419-19.184 4.735-37.89 12.911-55.465 11.666-25.061 30.888-41.902 56.797-50.969 6.050-2.118 12.331-3.598 18.607-5.077 2.709-0.638 5.423-1.278 8.111-1.968 0.495-0.127 1.015-0.153 1.711-0.188 0.38-0.020 0.811-0.041 1.318-0.084-0.282 0.421-0.525 0.792-0.747 1.129-0.388 0.591-0.708 1.080-1.054 1.551-11.422 15.412-20.425 32.035-25.233 50.725-5.811 22.571-4.356 44.848 2.88 66.869 4.663 14.19 11.324 27.495 17.984 40.8 0.269 0.534 0.538 1.068 0.802 1.601 6.059 12.096 11.277 24.49 13.303 38.004 1.805 12.041 1.203 24.006-1.028 35.933-0.081 0.442-0.141 0.889-0.218 1.524-0.047 0.361-0.102 0.798-0.175 1.313 0.55-0.521 1.045-0.986 1.502-1.418 0.896-0.839 1.651-1.548 2.377-2.284 17.929-18.194 30.737-39.254 36.096-64.489 2.726-12.835 3.925-25.849 2.684-38.879-1.387-14.537-3.166-29.035-4.949-43.532l-0.004-0.053c-0.525-4.253-1.045-8.506-1.557-12.76-2.62-21.772-5.082-43.554-3.409-65.543 1.899-24.881 9.071-47.767 25.728-66.979 8.201-9.459 17.847-17.2 28.518-23.69 0.29-0.177 0.614-0.302 1.003-0.453 0.209-0.080 0.435-0.169 0.687-0.276-15.343 65.293-1.988 123.813 39.642 175.831 0.077-0.013 0.158-0.026 0.235-0.038 0.060-0.010 0.119-0.020 0.175-0.030l0.098-0.017c0.107-0.017 0.209-0.035 0.311-0.051-0.034-0.467-0.073-0.934-0.111-1.401l-0.102-1.298c-0.218-2.72-0.435-5.442-0.644-8.162-2.197-28.79 2.317-56.644 11.618-83.847 6.839-20.012 15.859-39.085 24.879-58.156 0.998-2.112 1.997-4.225 2.991-6.339 10.338-21.951 20.164-44.098 26.142-67.745 8.192-32.403 7.458-64.702-0.849-96.949-0.363-1.412-1.097-1.813-2.492-1.813-10.061 0.013-20.126 0.017-30.187 0.021-18.112 0.009-36.228 0.017-54.34 0.064-0.994 0-2.321 0.627-2.927 1.404-19.516 25.054-44.821 42.121-74.018 53.841-21.611 8.674-44.117 13.99-67.059 17.523-10.185 1.57-20.389 3.029-30.593 4.489-13.348 1.907-26.696 3.819-40.005 5.973-20.342 3.287-40.173 8.603-58.585 18.198-37.558 19.57-59.944 50.301-67.098 92.028-4.229 24.663-1.728 48.876 5.507 72.702 0.185 0.604 0.397 1.201 0.62 1.794 0.034 0.090 0.108 0.169 0.236 0.302 0.079 0.083 0.174 0.171 0.297 0.313zM449.041-15.040c-1.455 4.506-2.876 8.913-4.612 13.188-7.646 18.816-20.627 33.455-36.582 45.658-15.618 11.947-32.97 20.945-50.409 29.828-4.429 2.257-8.867 4.497-13.305 6.741-15.516 7.834-31.035 15.676-46.193 24.154-24.669 13.803-46.174 31.552-62.64 54.878-11.182 15.842-19.048 33.246-24.375 51.844-0.057 0.201-0.073 0.414-0.099 0.768-0.017 0.226-0.038 0.503-0.076 0.875 19.043-14.327 39.809-22.921 63.988-24.269-0.237 0.452-0.445 0.853-0.635 1.22-0.419 0.811-0.748 1.442-1.099 2.065-11.759 20.945-18.624 43.494-22.054 67.166-2.522 17.387-3.028 34.825-1.033 52.275 3.528 30.895 13.204 59.268 34.601 82.722 1.207 1.323 2.375 2.675 3.543 4.028 0.543 0.631 1.085 1.259 1.632 1.886l0.685-0.602c-0.429-1.664-0.879-3.319-1.327-4.979-0.974-3.588-1.947-7.181-2.717-10.82-8.492-40.081-2.794-78.101 16.934-113.971 11.155-20.279 26.159-37.521 42.842-53.397 14.801-14.089 30.783-26.765 46.763-39.441 2.677-2.125 5.355-4.25 8.027-6.379 16.379-13.056 32.316-26.598 45.24-43.277 13.21-17.058 21.406-36.181 23.927-57.681 3.383-28.851-3.025-55.923-14.797-82.031-0.862-1.92-1.779-3.814-2.726-5.769-0.273-0.555-0.555-1.143-0.832-1.711-0.201-0.418-0.401-0.836-0.606-1.263-0.717 2.116-1.395 4.215-2.065 6.293zM588.083 424.303c19.942-39.573 23.607-80.303 11.635-122.496 0.196-0.128 0.393-0.26 0.589-0.388 51.499 29.747 103.006 59.486 154.654 89.314l10.961 6.327c15.71 9.071 31.433 18.15 47.177 27.243h-225.015zM480.585 348.77c-0.017-20.079-16.137-36.105-36.301-36.096-20.209 0-36.241 16.149-36.208 36.476 0.033 19.998 16.265 36.002 36.451 35.942 20.113-0.064 36.070-16.145 36.058-36.322zM629.696 292.663v-87.757c0.038-0.841 0.064-1.685 0.064-2.534 0-28.817-23.364-52.181-52.181-52.181s-52.181 23.364-52.181 52.181c0 20.079 11.337 37.504 27.959 46.229l-0.175 0.098 76.514 43.964z" />
<glyph unicode="&#xe903;" glyph-name="game-bai" d="M128.333 539.535l75.747-131.206v287.192l-40.164-23.175c-22.315-12.908-38.595-34.143-45.267-59.044s-3.188-51.432 9.684-73.767zM565.449 871.294c-12.318 3.343-25.173 4.212-37.833 2.557-12.655-1.655-24.858-5.802-35.9-12.201l-41.412-23.977h166.289c-12.949 16.459-30.899 28.26-51.145 33.621zM895.535 356.523l-75.75 131.226v-287.194l40.183 23.177c11.063 6.37 20.766 14.857 28.544 24.981 7.782 10.121 13.491 21.675 16.802 34.005s4.16 25.19 2.496 37.85c-1.664 12.659-5.803 24.866-12.19 35.921l-0.085 0.034zM532.147 34.479l41.429 23.906h-166.288c14.488-18.291 35.066-30.771 57.987-35.157 22.921-4.39 46.652-0.397 66.871 11.251zM372.918 208.934h-33.176c-0.459 0.004-0.911-0.107-1.317-0.32s-0.754-0.521-1.013-0.9c-0.259-0.375-0.421-0.815-0.471-1.271-0.051-0.452 0.012-0.913 0.181-1.34l16.526-42.573c0.204-0.529 0.565-0.99 1.034-1.31 0.469-0.324 1.026-0.495 1.595-0.495s1.126 0.171 1.595 0.495c0.469 0.32 0.83 0.781 1.034 1.31l16.632 42.573c0.165 0.427 0.224 0.883 0.171 1.34-0.052 0.452-0.215 0.887-0.473 1.263-0.258 0.38-0.604 0.687-1.008 0.9s-0.854 0.329-1.311 0.329zM669.824 733.581c-0.201 0.532-0.563 0.989-1.033 1.312s-1.024 0.495-1.596 0.495c-0.567 0-1.126-0.173-1.596-0.495s-0.828-0.78-1.033-1.312l-16.525-42.571c-0.166-0.426-0.226-0.886-0.171-1.34 0.051-0.454 0.213-0.888 0.469-1.266 0.26-0.377 0.606-0.686 1.011-0.9 0.401-0.214 0.853-0.326 1.31-0.327h33.178c0.457 0 0.909 0.112 1.314 0.327s0.755 0.525 1.011 0.905c0.26 0.38 0.422 0.817 0.474 1.273s-0.013 0.918-0.179 1.346l-16.636 42.553zM701.201 816.28h-378.519c-25.779-0.028-50.494-10.284-68.719-28.516s-28.472-42.951-28.491-68.73v-542.045c0.029-25.775 10.28-50.479 28.505-68.702s42.934-28.467 68.706-28.493h378.519c25.771 0.026 50.479 10.27 68.698 28.493 18.223 18.223 28.471 42.931 28.497 68.702v542.045c-0.017 25.777-10.257 50.496-28.48 68.729s-42.935 28.489-68.715 28.517zM423.565 250.078l-46.796-121.382c-1.58-4.105-4.367-7.637-7.993-10.125-3.626-2.492-7.922-3.823-12.32-3.823s-8.695 1.331-12.321 3.823c-3.626 2.487-6.413 6.020-7.993 10.125l-46.706 121.489c-0.67 1.758-0.987 3.627-0.934 5.504 0.053 1.882 0.476 3.729 1.244 5.444s1.867 3.264 3.232 4.553c1.366 1.293 2.973 2.3 4.728 2.97s3.626 0.986 5.505 0.934c1.878-0.055 3.728-0.478 5.443-1.246s3.262-1.865 4.552-3.234c1.291-1.365 2.299-2.97 2.969-4.727l6.614-17.399c0.581-1.566 1.626-2.914 2.996-3.87s2.999-1.472 4.669-1.476h51.93c1.646 0 3.253 0.495 4.614 1.417 1.361 0.926 2.412 2.24 3.016 3.772l6.953 17.63c1.381 3.546 4.113 6.4 7.597 7.927 3.484 1.532 7.433 1.617 10.979 0.239 3.546-1.382 6.398-4.113 7.929-7.599 1.531-3.482 1.616-7.433 0.236-10.978l-0.143 0.034zM610.283 400.841c-9.536-9.493-22.020-15.467-35.396-16.934-13.38-1.463-26.859 1.66-38.229 8.858l8.111-43.657c0.363-2.039 0.273-4.134-0.26-6.14-0.529-2.001-1.493-3.866-2.816-5.457-1.327-1.596-2.982-2.88-4.855-3.767s-3.917-1.357-5.99-1.374h-37.739c-2.074 0.013-4.117 0.482-5.995 1.37-1.873 0.887-3.533 2.172-4.86 3.763-1.327 1.596-2.291 3.46-2.825 5.461-0.533 2.005-0.623 4.1-0.26 6.144l8.055 43.409c-12.309-7.778-27.051-10.743-41.412-8.337-14.357 2.406-27.327 10.022-36.426 21.389s-13.69 25.69-12.896 40.226c0.794 14.541 6.917 28.275 17.2 38.583l85.375 85.124c3.422 3.402 8.051 5.312 12.877 5.312s9.459-1.909 12.881-5.312l85.393-85.214c5.504-5.461 9.873-11.959 12.86-19.115 2.982-7.159 4.523-14.839 4.531-22.592 0.004-7.757-1.519-15.437-4.493-22.601s-7.334-13.666-12.83-19.14zM721.131 626.566c-2.876-0.010-5.692 0.852-8.073 2.471s-4.215 3.921-5.261 6.603l-6.95 17.631c-0.61 1.527-1.664 2.838-3.021 3.762-1.361 0.925-2.965 1.421-4.612 1.425h-51.93c-1.668-0.005-3.298-0.519-4.668-1.475s-2.415-2.307-2.995-3.873l-6.618-17.399c-0.67-1.75-1.681-3.35-2.97-4.71-1.293-1.359-2.837-2.452-4.548-3.214-1.715-0.762-3.558-1.18-5.431-1.229-1.877-0.049-3.742 0.272-5.491 0.944s-3.349 1.682-4.71 2.972c-1.357 1.291-2.449 2.836-3.213 4.549s-1.182 3.558-1.229 5.432c-0.051 1.874 0.273 3.739 0.943 5.489l46.707 121.437c1.579 4.105 4.365 7.635 7.991 10.125s7.923 3.823 12.322 3.823c4.399 0 8.695-1.332 12.322-3.823 3.622-2.49 6.413-6.020 7.991-10.125l46.797-121.366c0.845-2.167 1.148-4.508 0.883-6.819-0.269-2.311-1.097-4.522-2.411-6.44-1.318-1.918-3.085-3.485-5.146-4.564s-4.352-1.637-6.682-1.626z" />
<glyph unicode="&#xe904;" glyph-name="live-casino" d="M228.013 128.465c69.652-61.948 159.695-101.457 258.796-107.209v126.020c-64.425 5.316-123.112 30.874-169.684 70.298l-89.112-89.109zM85.25 422.818c5.748-99.102 45.261-189.146 107.206-258.799l89.112 89.114c-39.425 46.571-64.982 105.259-70.297 169.685h-126.021zM192.456 731.904c-61.945-69.652-101.457-159.695-107.206-258.799h126.021c5.315 64.427 30.872 123.113 70.297 169.687l-89.112 89.112zM486.81 874.667c-99.101-5.748-189.145-45.261-258.796-107.206l89.112-89.112c46.573 39.425 105.26 64.982 169.684 70.297v126.021zM795.895 767.461c-69.649 61.944-159.693 101.457-258.799 107.206v-126.021c64.427-5.315 123.115-30.872 169.69-70.297l89.109 89.112zM938.658 473.105c-5.747 99.103-45.261 189.147-107.204 258.799l-89.114-89.112c39.428-46.573 64.981-105.26 70.298-169.687h126.020zM831.454 164.019c61.943 69.653 101.457 159.697 107.204 258.799h-126.020c-5.316-64.427-30.869-123.115-70.298-169.685l89.114-89.114zM537.097 21.257c99.106 5.751 189.15 45.261 258.799 107.209l-89.109 89.109c-46.575-39.424-105.263-64.981-169.69-70.298v-126.020zM260.524 447.962c0 138.862 112.57 251.431 251.429 251.431 138.863 0 251.43-112.57 251.43-251.431 0-138.863-112.567-251.43-251.43-251.43-138.86 0-251.429 112.567-251.429 251.43zM419.265 550.635c-29.868-10.346-49.995-40.751-49.761-77.18l-0.029-0.026c0.934-24.934 10.063-49.152 25.056-71.42 21.176-31.467 49.353-55.97 80.533-77.406 37.103-25.506 37.308-25.621 74.556 0.171 40.576 28.117 75.87 60.928 94.447 107.558 8.956 22.438 14.208 45.879 6.942 69.756-8.457 27.827-27.797 45.451-56.994 50.953-29.956 5.646-54.43-4.7-72.806-28.169-6.532-8.311-10.586-10.863-18.347-0.917-21.495 27.539-53.231 37.197-83.596 26.679z" />
<glyph unicode="&#xe905;" glyph-name="lo-de" d="M844.745 616.127c18.778-0.009 37.414 3.209 55.1 9.515-42.795 92.881-117.333 167.44-210.202 210.256-8.832-24.837-11.571-51.432-7.983-77.548 3.584-26.115 13.393-50.988 28.591-72.525 15.202-21.537 35.349-39.109 58.756-51.238 23.403-12.129 49.378-18.459 75.738-18.46zM899.895 270.357c-29.329 10.428-61.013 12.326-91.375 5.478-30.366-6.852-58.167-22.17-80.175-44.181-22.012-22.007-37.329-49.809-44.181-80.175-6.848-30.362-4.949-62.046 5.478-91.375 92.89 42.803 167.45 117.363 210.253 210.253zM124.103 625.641c17.685-6.306 36.322-9.524 55.097-9.515 43.645 0.047 85.49 17.405 116.352 48.267s48.221 72.707 48.267 116.352c0.010 18.775-3.208 37.413-9.514 55.097-92.861-42.803-167.399-117.341-210.202-210.202zM179.254 279.872c-18.775 0.009-37.412-3.209-55.097-9.515 42.793-92.881 117.332-167.437 210.202-210.253 6.307 17.681 9.525 36.318 9.515 55.095-0.032 43.657-17.385 85.513-48.248 116.386s-72.716 48.239-116.371 48.286zM512 612.62c-32.559 0-64.384-9.655-91.458-27.744-27.072-18.089-48.171-43.799-60.631-73.879s-15.719-63.181-9.367-95.113c6.352-31.932 22.030-61.265 45.053-84.288s52.357-38.703 84.288-45.052c31.932-6.353 65.033-3.093 95.113 9.365s55.791 33.562 73.877 60.634c18.091 27.068 27.746 58.897 27.746 91.456-0.047 43.644-17.408 85.49-48.269 116.352s-72.708 48.221-116.352 48.267zM587.456 506.146l-67.191-161.259c-1.143-2.914-2.854-5.568-5.039-7.812s-4.791-4.028-7.671-5.248c-2.884-1.225-5.978-1.856-9.109-1.869-3.127-0.009-6.229 0.606-9.118 1.809s-5.508 2.974-7.706 5.201c-2.197 2.231-3.925 4.877-5.090 7.782-1.161 2.906-1.728 6.016-1.673 9.148 0.055 3.127 0.734 6.212 2.001 9.075l53.619 128.7h-72.23c-3.089 0-6.148 0.606-9.003 1.788s-5.449 2.914-7.633 5.099c-2.185 2.185-3.917 4.774-5.099 7.629-1.178 2.854-1.788 5.914-1.783 9.003-0.004 3.089 0.606 6.148 1.783 9.003 1.182 2.854 2.914 5.449 5.099 7.629 2.185 2.186 4.779 3.918 7.633 5.099s5.914 1.789 9.003 1.787h107.503c3.874 0.002 7.689-0.952 11.102-2.778s6.323-4.466 8.474-7.692c2.146-3.221 3.465-6.925 3.836-10.778s-0.213-7.74-1.707-11.315zM917.154 581.859c-23.202-8.465-47.71-12.787-72.41-12.766-34.022 0.006-67.546 8.215-97.724 23.928-30.182 15.714-56.128 38.471-75.644 66.343s-32.026 60.038-36.471 93.771c-4.442 33.734-0.691 68.042 10.94 100.017-86.925 28.686-180.766 28.686-267.691 0 8.463-23.201 12.78-47.709 12.753-72.406-0.064-56.114-22.384-109.912-62.063-149.591s-93.477-61.999-149.591-62.063c-24.697-0.022-49.205 4.3-72.406 12.766-28.686-86.934-28.686-180.784 0-267.717 31.974 11.635 66.283 15.394 100.018 10.953s65.903-16.947 93.776-36.467c27.873-19.516 50.631-45.461 66.344-75.644 15.713-30.178 23.919-63.706 23.921-97.728 0.026-24.7-4.291-49.207-12.753-72.41 86.925-28.685 180.766-28.685 267.691 0-13.781 37.867-16.469 78.874-7.748 118.212s28.493 75.371 56.981 103.859c28.493 28.489 64.525 48.256 103.863 56.977s80.35 6.029 118.212-7.753c28.685 86.933 28.685 180.783 0 267.717zM512 236.348c-41.86 0-82.782 12.412-117.588 35.669s-61.935 56.311-77.954 94.985c-16.020 38.677-20.211 81.233-12.044 122.291 8.166 41.054 28.325 78.769 57.925 108.369s67.315 49.758 108.369 57.925c41.058 8.166 83.614 3.975 122.291-12.044 38.673-16.020 71.727-43.148 94.985-77.954s35.669-75.728 35.669-117.588c-0.060-56.115-22.379-109.914-62.059-149.594s-93.478-61.999-149.594-62.059z" />
<glyph unicode="&#xe906;" glyph-name="no-hu" d="M314.165 763.878c5.398 33.114 20.198 63.456 41.833 88.667-53.622-1.145-100.218-26.8-125.076-64.3 15.926-4.324 33.713-9.652 51.058-14.844 10.58-3.17 21.733-6.508 32.185-9.524zM511.821 513.668c-13.79 0-25.007-11.324-25.007-25.246v-25.25c0-13.922 11.217-25.25 25.007-25.25s25.011 11.328 25.011 25.25v25.25c0 13.922-11.221 25.246-25.011 25.246zM157.524 691.929c52.819-45.341 84.466-79.369 100.489-109.067 54.392-31.264 118.648-52.426 186.609-60.818 12.288 24.939 37.79 42.123 67.2 42.123 29.423 0 54.929-17.193 67.217-42.14 68.258 8.393 132.429 29.403 186.931 60.867 22.669 44.217 58.786 73.996 82.231 93.32 9.165 7.551 16.405 13.516 21.525 19.182 17.591 19.453 12.506 34.484 7.906 41.714-12.548 19.736-38.532 13.084-54.054 9.11-15.39-3.939-34.803-10.232-55.356-16.895-33.033-10.708-74.138-24.035-92.147-24.622-23.607-0.751-47.774 7.901-73.365 17.078-27.558 9.884-56.051 20.103-87.509 20.103-31.676 0-60.954-10.562-89.264-20.778-30.239-10.907-58.796-21.212-85.065-16.192-16.809 3.212-45.411 11.777-73.072 20.062-22.55 6.753-45.868 13.735-63.896 18.145-21.265 5.206-47.732 11.678-59.257-9.798-5.085-9.475-6.978-24.348 12.878-41.394zM893.961 437.18c-25.079 41.651-58.355 77.815-96.691 105.726-58.773-35.159-127.795-59.117-201.22-69.553 39.983-38.246 64.162-101.867 64.162-171.691 0-6.541-0.222-13.171-0.661-19.703-0.892-13.333-11.883-23.548-24.926-23.548-0.567 0-1.139 0.021-1.711 0.060-13.781 0.939-24.196 12.979-23.266 26.893 0.363 5.406 0.546 10.893 0.546 16.303 0 46.805-13.367 90.577-35.511 120.235-13.397-20.732-36.561-34.47-62.857-34.47-26.283 0-49.434 13.722-62.839 34.436-22.131-29.713-35.531-73.583-35.531-120.201 0-4.203 0.112-8.491 0.332-12.74 0.724-13.922-9.875-25.805-23.667-26.534-0.445-0.021-0.889-0.034-1.329-0.034-13.213 0-24.255 10.449-24.954 23.927-0.265 5.124-0.4 10.3-0.4 15.381 0 69.577 24.227 133.419 64.177 171.691-50.807 7.185-99.366 20.745-144.676 40.482-19.792 8.619-38.595 18.274-56.375 28.89-38.745-28.873-72.792-66.479-97.581-108.643-38.677-65.783-52.275-136.61-38.289-199.428 14.367-64.529 57.164-117.867 123.762-154.244 71.8-39.219 170.63-59.081 293.901-59.081 3.537 0 7.108 0.017 10.684 0.047 124.745 1.143 224.299 22.673 295.906 63.996 64.623 37.295 105.796 90.906 119.061 155.034 12.941 62.528-1.284 132.407-40.047 196.77zM515.2 792.382c40.081 0 74.176-12.229 104.252-23.018 20.382-7.307 39.629-14.21 53.734-14.21 0.333 0 0.67 0.007 1.003 0.015-10.667 67.432-76.271 119.497-155.371 119.497-79.245 0-144.945-52.254-155.433-119.866 12.719 1.956 28.834 7.768 45.709 13.858 30.833 11.123 65.764 23.723 106.105 23.723zM752.93 777.405c18.125 5.874 35.324 11.441 50.436 15.637-25.557 34.875-70.43 58.41-121.732 59.505 20.779-24.217 35.255-53.165 41.148-84.757 11.341 3.518 22.293 7.068 30.148 9.615z" />
<glyph unicode="&#xe907;" glyph-name="number-game" d="M535.454 330.97c-17.045 40.422-45.645 74.914-82.206 99.153-36.566 24.239-79.471 37.146-123.34 37.103-4.786 0-9.621-0.145-14.374-0.452-47.175-3.076-92.151-21.069-128.432-51.375s-61.99-71.364-73.412-117.239c-11.422-45.875-7.968-94.191 9.866-137.975 17.833-43.78 49.121-80.759 89.346-105.6 40.224-24.836 87.303-36.245 134.435-32.576 47.133 3.665 91.879 22.221 127.779 52.979 35.895 30.763 61.090 72.137 71.936 118.153 10.846 46.012 6.784 94.276-11.597 137.83zM283.666 182.882c-19.561 0.004-38.683 5.807-54.947 16.674-16.264 10.871-28.939 26.317-36.423 44.39s-9.44 37.961-5.622 57.143c3.818 19.187 13.24 36.809 27.074 50.637 13.833 13.833 31.458 23.249 50.644 27.063s39.072 1.852 57.143-5.636c18.071-7.488 33.516-20.169 44.381-36.433 10.865-16.269 16.663-35.392 16.659-54.95-0.005-26.231-10.428-51.383-28.977-69.926-18.549-18.547-43.705-28.962-69.934-28.962zM419.591 714.098v-62.135h-2.344c-3.564-0.118-6.944-1.616-9.423-4.179s-3.866-5.99-3.866-9.556c0-3.566 1.386-6.993 3.866-9.556s5.859-4.061 9.423-4.179h31.61c3.563 0.117 6.942 1.616 9.421 4.179s3.866 5.99 3.866 9.556c0 3.566-1.387 6.993-3.866 9.556s-5.858 4.061-9.421 4.179h-1.813v88.046c-0.004 2.54-0.713 5.029-2.044 7.191-1.335 2.162-3.238 3.912-5.508 5.056-2.266 1.144-4.809 1.637-7.339 1.425s-4.954-1.123-6.999-2.629l-17.027-12.611c-2.548-1.888-4.364-4.601-5.139-7.677s-0.459-6.325 0.892-9.195c1.351-2.87 3.655-5.183 6.519-6.546s6.112-1.685 9.191-0.924zM318.97 246.455l-53.42-0.457c-0.74 0-1.452 0.29-1.981 0.806-0.529 0.521-0.834 1.225-0.849 1.967l-0.154 16.346c0 0.367 0.073 0.73 0.215 1.067 0.142 0.341 0.351 0.649 0.613 0.905 0.255 0.265 0.56 0.478 0.897 0.623 0.337 0.149 0.7 0.226 1.068 0.235l36.904 0.329c8.020 0.085 15.678 3.349 21.298 9.071s8.743 13.436 8.685 21.457l-0.154 16.354c-0.082 8.017-3.34 15.671-9.059 21.291-5.719 5.615-13.432 8.738-21.449 8.678l-53.446-0.469c-3.626-0.055-7.083-1.545-9.616-4.139s-3.937-6.089-3.904-9.715c0.032-3.627 1.497-7.091 4.076-9.643 2.579-2.547 6.061-3.977 9.688-3.968l53.443 0.478c0.736-0.004 1.441-0.299 1.967-0.815 0.525-0.512 0.829-1.212 0.848-1.95l0.145-16.371c-0.006-0.734-0.295-1.442-0.808-1.971-0.515-0.529-1.219-0.832-1.957-0.841l-36.904-0.333c-8.022-0.085-15.683-3.345-21.305-9.067s-8.749-13.436-8.695-21.457l0.146-16.354c0.066-6.588 2.275-12.975 6.294-18.193s9.627-8.986 15.977-10.731c2.693-0.73 5.472-1.088 8.262-1.062l53.42 0.478c1.809 0.004 3.601 0.367 5.27 1.067 1.669 0.695 3.184 1.719 4.456 3.008 1.273 1.284 2.278 2.812 2.959 4.489s1.023 3.473 1.007 5.282c-0.016 1.809-0.39 3.597-1.1 5.261s-1.742 3.174-3.037 4.437c-1.295 1.263-2.828 2.261-4.509 2.931s-3.483 1.007-5.293 0.977zM770.935 404.471l-55.369 1.045c-1.83 0.081-3.657-0.209-5.376-0.845-1.715-0.636-3.285-1.609-4.621-2.863s-2.406-2.765-3.149-4.437c-0.747-1.673-1.143-3.477-1.182-5.308-0.034-1.835 0.299-3.652 0.977-5.355 0.678-1.698 1.69-3.247 2.978-4.553 1.284-1.301 2.82-2.338 4.51-3.038 1.69-0.704 3.507-1.058 5.338-1.050l55.377-1.041c0.9-0.030 1.758-0.41 2.381-1.062 0.627-0.644 0.973-1.51 0.964-2.406l-0.333-16.951c-0.026-0.9-0.401-1.754-1.050-2.381-0.644-0.627-1.51-0.977-2.411-0.977l-55.381 1.058c-1.805 0.043-3.601-0.277-5.282-0.934-1.685-0.653-3.221-1.634-4.523-2.889-1.301-1.25-2.347-2.743-3.068-4.399-0.725-1.655-1.114-3.435-1.148-5.239s0.29-3.601 0.947-5.282c0.661-1.681 1.647-3.213 2.901-4.51 1.254-1.301 2.752-2.338 4.412-3.059 1.655-0.717 3.435-1.101 5.244-1.131l55.373-1.067c0.448-0.009 0.887-0.107 1.293-0.286 0.41-0.179 0.777-0.435 1.084-0.759 0.623-0.649 0.973-1.515 0.964-2.415l-0.316-16.956c-0.034-0.896-0.414-1.749-1.062-2.368-0.649-0.623-1.515-0.969-2.415-0.96l-55.386 1.041c-3.631 0.051-7.134-1.335-9.745-3.861s-4.113-5.986-4.181-9.617c-0.068-3.631 1.31-7.138 3.823-9.762 2.513-2.62 5.965-4.139 9.596-4.22l55.381-1.041c8.183-0.145 16.085 2.961 21.978 8.636s9.293 13.457 9.455 21.636l0.333 16.96c0.119 6.101-1.583 12.1-4.894 17.229 3.507 4.992 5.436 10.923 5.538 17.024l0.316 16.956c0.137 8.179-2.974 16.081-8.653 21.973-5.675 5.892-13.44 9.293-21.619 9.463zM282.522 545.245c10.545 2.114 21.22 3.513 31.953 4.187 5.093 0.339 10.283 0.497 15.409 0.497 32.035 0.057 63.752-6.35 93.253-18.835 1.324-0.567 2.649-1.161 3.972-1.749 27.652 42.207 67.908 74.618 115.046 92.627 47.134 18.008 98.743 20.697 147.494 7.683 3.622-0.97 7.228-2.036 10.799-3.169 0.922 8.301 1.382 16.647 1.374 25 0.009 33.972-7.74 67.498-22.656 98.021s-36.604 57.237-63.411 78.105c-26.807 20.868-58.027 35.339-91.277 42.31s-67.652 6.256-100.584-2.088c-32.932-8.344-63.523-24.098-89.443-46.060s-46.481-49.553-60.117-80.668c-13.637-31.116-19.988-64.934-18.57-98.877s10.572-67.112 26.756-96.982zM432.521 788.042c19.558-0.001 38.682-5.802 54.942-16.669s28.937-26.312 36.42-44.382c7.484-18.070 9.442-37.954 5.628-57.137-3.819-19.183-13.235-36.803-27.068-50.633-13.828-13.83-31.45-23.249-50.633-27.065s-39.066-1.858-57.137 5.626c-18.070 7.484-33.516 20.159-44.382 36.421s-16.668 35.381-16.669 54.94c0.001 26.229 10.42 51.383 28.966 69.931s43.706 28.966 69.933 28.969zM904.533 438.673c-13.692 39.159-38.029 73.724-70.276 99.819-32.252 26.094-71.134 42.681-112.286 47.901s-82.948-1.137-120.687-18.354c-37.743-17.217-69.939-44.613-92.971-79.113 28.237-14.916 53.201-35.332 73.421-60.049 20.224-24.713 35.298-53.222 44.331-83.849 9.037-30.63 11.849-62.758 8.277-94.49s-13.461-62.43-29.077-90.283c39.791-17.173 83.725-22.396 126.434-15.023s82.351 27.017 114.086 56.542c31.731 29.521 54.182 67.639 64.614 109.709s8.393 86.263-5.867 127.189zM750.298 239.595c-19.558 0.004-38.677 5.807-54.938 16.674s-28.932 26.313-36.416 44.386c-7.484 18.069-9.442 37.952-5.623 57.135s13.239 36.8 27.068 50.628c13.833 13.828 31.454 23.249 50.637 27.063 19.179 3.814 39.066 1.856 57.135-5.632 18.069-7.484 33.51-20.16 44.378-36.42 10.867-16.265 16.666-35.383 16.666-54.942 0-12.988-2.556-25.847-7.526-37.85-4.971-11.998-12.254-22.899-21.44-32.085-9.186-9.182-20.087-16.465-32.090-21.436-12.002-4.966-24.862-7.522-37.85-7.522z" />
<glyph unicode="&#xe908;" glyph-name="quay-so" d="M514.095 540.102c11.691 0 21.167 9.476 21.167 21.166s-9.476 21.166-21.167 21.166c-11.691 0-21.167-9.476-21.167-21.166s9.476-21.166 21.167-21.166zM736.452 540.102c11.691 0 21.167 9.476 21.167 21.166s-9.476 21.166-21.167 21.166c-11.691 0-21.167-9.476-21.167-21.166s9.476-21.166 21.167-21.166zM881.83 595.471l-222.349 222.359c-4.493 4.492-9.826 8.056-15.693 10.487-5.871 2.432-12.16 3.683-18.513 3.683-6.357 0-12.646-1.251-18.517-3.683-5.867-2.431-11.2-5.995-15.693-10.487l-222.36-222.359c-4.492-4.492-8.056-9.826-10.487-15.695s-3.683-12.161-3.683-18.514c0-6.353 1.251-12.645 3.683-18.514s5.995-11.202 10.487-15.695l222.36-222.349c4.493-4.493 9.826-8.055 15.693-10.487 5.871-2.428 12.16-3.682 18.517-3.682 6.353 0 12.642 1.254 18.513 3.682 5.867 2.432 11.2 5.995 15.693 10.487l222.349 222.349c4.493 4.493 8.055 9.825 10.487 15.695s3.682 12.161 3.682 18.514c0 6.353-1.25 12.644-3.682 18.514s-5.995 11.203-10.487 15.695zM514.155 497.771c-12.557 0-24.836 3.725-35.277 10.701s-18.581 16.896-23.386 28.497c-4.804 11.602-6.063 24.369-3.614 36.687s8.499 23.631 17.378 32.512c8.879 8.88 20.194 14.927 32.512 17.377s25.084 1.193 36.685-3.613c11.601-4.806 21.521-12.945 28.497-23.386s10.701-22.718 10.701-35.277c-0.017-16.845-6.724-32.995-18.641-44.899s-28.070-18.594-44.915-18.598h0.060zM736.512 497.771c-12.557 0-24.832 3.725-35.277 10.701-10.441 6.976-18.577 16.896-23.386 28.497-4.804 11.602-6.063 24.369-3.614 36.687 2.453 12.317 8.499 23.631 17.378 32.512s20.194 14.927 32.512 17.377c12.318 2.45 25.084 1.193 36.685-3.613 11.605-4.806 21.521-12.945 28.497-23.386s10.701-22.718 10.701-35.277c-0.017-16.845-6.724-32.995-18.641-44.899s-28.070-18.594-44.915-18.598h0.060zM333.607 230.302c21.709 0 39.308 17.596 39.308 39.305s-17.598 39.309-39.308 39.309c-21.709 0-39.307-17.6-39.307-39.309s17.598-39.305 39.307-39.305zM360.675 475.213h-184.297c-12.83 0-25.136-5.094-34.208-14.17-9.073-9.071-14.17-21.376-14.17-34.206v-314.458c0-12.834 5.097-25.139 14.17-34.21s21.378-14.17 34.208-14.17h314.459c12.83 0 25.135 5.099 34.206 14.17 9.075 9.071 14.17 21.376 14.17 34.21v184.294l-178.538 178.539zM333.607 187.968c-16.146 0-31.93 4.787-45.356 13.76-13.425 8.969-23.889 21.722-30.068 36.638s-7.796 31.33-4.646 47.168c3.15 15.838 10.926 30.383 22.343 41.801s25.964 19.191 41.8 22.345c15.836 3.149 32.251 1.532 47.168-4.646s27.668-16.644 36.638-30.067c8.97-13.427 13.758-29.21 13.758-45.359-0.026-21.645-8.635-42.394-23.939-57.698s-36.055-23.915-57.699-23.94z" />
<glyph unicode="&#xe909;" glyph-name="slots" d="M291.276 680.819c23.379 0 42.331 18.952 42.331 42.331s-18.952 42.33-42.331 42.33c-23.378 0-42.33-18.952-42.33-42.33s18.952-42.331 42.33-42.331zM732.723 680.819c23.381 0 42.334 18.952 42.334 42.331s-18.953 42.33-42.334 42.33c-23.377 0-42.33-18.952-42.33-42.33s18.953-42.331 42.33-42.331zM512 747.339c23.377 0 42.33 18.952 42.33 42.33s-18.953 42.331-42.33 42.331c-23.377 0-42.33-18.952-42.33-42.331s18.953-42.33 42.33-42.33zM684.348 487.309h-344.694c-11.227 0-21.994-4.463-29.932-12.399-7.939-7.94-12.399-18.705-12.399-29.935h429.355c0 11.23-4.459 21.995-12.399 29.935-7.94 7.936-18.705 12.399-29.931 12.399zM826.458 402.645h-158.234v-338.645h158.234c18.445 0 36.13 7.326 49.173 20.369s20.369 30.729 20.369 49.173v199.561c0 18.445-7.326 36.13-20.369 49.173s-30.729 20.369-49.173 20.369zM837.342 296.431l-72.567-145.135c-1.242-2.483-2.961-4.702-5.065-6.524-2.099-1.822-4.535-3.213-7.172-4.092s-5.423-1.229-8.196-1.033c-2.769 0.196-5.478 0.939-7.966 2.18-2.483 1.242-4.702 2.961-6.524 5.065-1.822 2.099-3.213 4.535-4.092 7.172s-1.229 5.423-1.033 8.196c0.196 2.769 0.939 5.478 2.18 7.966l57.22 114.496h-38.319c-5.611 0.004-10.991 2.236-14.959 6.204-3.972 3.968-6.204 9.348-6.204 14.963s2.227 10.995 6.199 14.967c3.968 3.968 9.353 6.199 14.963 6.199h72.567c3.61 0.004 7.159-0.913 10.317-2.671 3.153-1.754 5.807-4.284 7.71-7.351 1.899-3.072 2.982-6.575 3.149-10.18 0.162-3.605-0.597-7.194-2.21-10.423zM398.106 64h227.788v338.645h-227.788v-338.645zM454.541 305.89c-0.004 2.782 0.542 5.534 1.609 8.102 1.062 2.573 2.624 4.907 4.591 6.869 1.967 1.967 4.301 3.529 6.869 4.591 2.573 1.058 5.325 1.604 8.107 1.604h72.567c3.61 0 7.155-0.922 10.308-2.675 3.149-1.758 5.803-4.288 7.697-7.36 1.899-3.068 2.978-6.571 3.14-10.176 0.162-3.601-0.602-7.189-2.219-10.415l-72.567-145.135c-1.212-2.534-2.918-4.804-5.013-6.673-2.099-1.869-4.553-3.302-7.211-4.215s-5.474-1.289-8.277-1.101c-2.803 0.188-5.547 0.93-8.060 2.189-2.513 1.254-4.753 2.999-6.583 5.133-1.835 2.133-3.221 4.608-4.087 7.283s-1.19 5.495-0.951 8.294c0.235 2.803 1.028 5.53 2.33 8.021l57.229 114.496h-38.302c-5.615 0-10.995 2.231-14.967 6.199-3.968 3.972-6.208 9.353-6.208 14.967zM128 333.103v-199.561c0-18.445 7.327-36.13 20.369-49.173s30.731-20.369 49.175-20.369h158.232v338.645h-158.232c-18.444 0-36.133-7.326-49.175-20.369s-20.369-30.729-20.369-49.173zM278.165 327.057c3.607 0 7.156-0.922 10.307-2.675 3.152-1.758 5.802-4.288 7.699-7.36 1.897-3.068 2.977-6.571 3.139-10.176 0.161-3.601-0.602-7.189-2.217-10.415l-72.567-145.135c-1.243-2.483-2.963-4.702-5.063-6.524s-4.538-3.213-7.175-4.092c-2.637-0.879-5.421-1.229-8.194-1.033s-5.48 0.939-7.966 2.18c-2.487 1.242-4.704 2.961-6.525 5.065-1.821 2.099-3.212 4.535-4.091 7.172s-1.231 5.423-1.034 8.196c0.197 2.769 0.937 5.478 2.18 7.966l57.255 114.496h-38.315c-5.614 0-10.997 2.231-14.966 6.199-3.969 3.972-6.199 9.353-6.199 14.967-0.002 2.778 0.544 5.534 1.608 8.102s2.622 4.902 4.588 6.865c1.966 1.967 4.3 3.529 6.868 4.591s5.321 1.609 8.102 1.609h72.567zM328.648 528.841c3.647 0.503 7.324 0.772 11.006 0.798h344.694c3.682-0.026 7.356-0.294 11.004-0.798l24.192 110.676c-11.529 1.838-22.554 6.040-32.38 12.343s-18.24 14.569-24.721 24.279l-65.779-34.627-47.945 71.914c-11.447-5.539-24-8.417-36.719-8.417s-25.271 2.878-36.719 8.417l-47.945-71.914-65.792 34.627c-6.478-9.711-14.895-17.977-24.721-24.279s-20.849-10.505-32.378-12.343l24.201-110.676z" />
<glyph unicode="&#xe90a;" glyph-name="the-thao" d="M512 874.667c-235.6 0-426.667-191.067-426.667-426.667s191.067-426.667 426.667-426.667c235.601 0 426.667 191.066 426.667 426.667-0.269 235.467-191.198 426.4-426.667 426.667zM527.198 751.6l148.267 59.333c16.802-7.6 33.067-16.4 48.802-26.267l0.401-0.266c15.334-9.734 29.999-20.534 43.866-32.134l1.199-1.067c6.268-5.333 12.267-10.8 18.133-16.4 0.802-0.667 1.468-1.467 2.266-2.133 6.135-6 12.134-12.267 18.001-18.667 0.533-0.534 0.934-1.067 1.468-1.6 5.069-5.734 10.001-11.6 14.665-17.6 1.203-1.467 2.27-2.8 3.337-4.267 5.197-6.667 10.133-13.466 14.797-20.4l-29.598-125.734-145.468-48.532-140.134 112.132v143.6zM196.4 690.4c1.066 1.467 2.266 2.8 3.333 4.267 4.666 6 9.467 11.733 14.533 17.333 0.533 0.533 1.067 1.2 1.6 1.867 5.733 6.4 11.733 12.667 17.867 18.667 0.666 0.667 1.466 1.466 2.133 2 5.867 5.6 11.866 11.067 18 16.4l1.467 1.2c13.733 11.6 28.266 22.266 43.467 32l0.533 0.4c15.467 9.867 31.734 18.667 48.4 26.266l149.069-59.066v-143.6l-140.135-112.134-145.467 48.4-29.6 125.734c4.8 6.933 9.6 13.733 14.8 20.4v-0.133zM179.2 229.734c-4.133 6.4-8.134 12.932-12 19.465l-0.933 1.6c-3.733 6.532-7.334 13.333-10.8 20.134v0.269c-7.2 14.263-13.467 29.065-18.8 44.13-2.533 7.202-4.8 14.532-6.933 21.867l-0.8 2.667c-2 6.933-3.734 13.867-5.334 20.932-0.133 0.67-0.267 1.335-0.4 2.001-3.467 15.868-6 32-7.467 48.137l86.8 104.132 144.533-48.132 41.867-167.735-68.934-91.733-140.8 22.268zM606.669 61.201c-7.070-1.732-14.4-3.332-21.734-4.668-1.067-0.265-2.001-0.401-3.068-0.533-6.268-1.067-12.531-2.001-18.799-2.799-1.732-0.269-3.332-0.401-5.069-0.666-5.867-0.67-11.733-1.203-17.6-1.6-1.865 0-3.733-0.269-5.598-0.401-7.603-0.401-15.202-0.802-22.933-0.802-7.066 0-14.003 0.132-20.932 0.533-0.802 0-1.6 0.132-2.534 0.269-6.135 0.401-12.403 0.798-18.534 1.468h-0.666c-13.466 1.6-26.799 3.729-40.132 6.532l-84.136 131.733 67.867 90.398h198.131l68.937-91.063-73.335-128.401h0.137zM900.932 362.667c-0.132-0.666-0.265-1.331-0.397-2.001-1.6-7.066-3.337-13.999-5.333-20.932l-0.802-2.667c-2.133-7.334-4.399-14.532-6.933-21.734-5.333-15.198-11.601-29.867-18.667-44.267v-0.265c-3.469-6.801-7.066-13.47-10.935-20.134l-0.93-1.6c-3.733-6.665-7.735-13.069-12.002-19.469l-140.267-22.131-69.333 91.601 41.869 167.599 144.533 48.132 86.801-104.132c-1.468-16.265-4.002-32.265-7.471-48.265l-0.132 0.265z" />
<glyph unicode="&#xe90b;" glyph-name="thinh-hanh" d="M735.437 545.763c0.021-5.231 0.034-9.22-0.026-13.211-0.636-33.877-21.252-62.148-52.326-71.77-31.475-9.758-62.848 2.206-83.029 30.908-16.474 23.39-13.197 48.748-7.586 73.942 24.094 107.889-5.978 198.538-86.502 272.915-9.903 9.144-20.919 17.109-31.927 25.070-5.043 3.646-10.086 7.291-15.019 11.049-0.836-0.535-1.673-1.078-2.505-1.62-0.836-0.543-1.673-1.086-2.509-1.62 0-1.317-0.060-2.648-0.119-3.98-0.128-2.892-0.26-5.792 0.222-8.583 9.152-54.362-2.94-104.181-34.216-148.854-16.205-23.188-34.649-44.907-53.26-66.257-11.017-12.647-22.493-24.922-33.966-37.193-18.866-20.179-37.722-40.347-54.511-62.144-58.673-76.247-81.193-163.287-69.065-258.984 23.155-182.63 211.169-305.66 386.888-250.961 212.804 66.223 290.991 318.758 153.263 511.315-1.506 2.115-3.763 3.704-6.989 5.978-1.92 1.355-4.186 2.919-6.844 5.015 0-4.296 0.013-7.878 0.026-11.014zM650.010 304.371c0.043 0.021 0.081 0.047 0.124 0.073 15.27-29.803 17.105-59.81 11.959-90.283-5.649-33.429-23.74-64.576-49.506-87.723-31.206-28.062-73.698-44.395-119.019-38.81-75.913 9.357-134.686 77.385-134.319 157.841 0.268 57.203 20.482 106.556 56.401 149.79 3.473 4.181 7.020 8.303 10.619 12.378 9.207 10.423 18.756 20.557 28.305 30.694 5.952 6.31 11.9 12.625 17.766 19.008 1.037-0.465 2.065-0.943 3.093-1.421 1.028-0.474 2.052-0.951 3.089-1.417 0-2.15-0.026-4.301-0.055-6.451-0.055-4.561-0.115-9.122 0.090-13.666 0.401-8.465 0.435-17.020 0.469-25.57 0.081-19.392 0.162-38.784 4.476-57.19 17.041-72.742 94.225-99.038 154.3-54.831 0.879 0.64 1.813 1.25 2.761 1.856 1.493 0.96 3.093 1.911 4.855 2.957 0.926 0.55 1.899 1.126 2.923 1.745 0.542 0.329 1.101 0.661 1.668 1.020 0.004-0.004 0 0 0 0z" />
<glyph unicode="&#xe90c;" glyph-name="ebet" d="M861.517 399.893c0 0 159.275 396.587-206.797 430.025-366.075 33.439-558.125-344.086-522.73-556.425 27.529-166.857 123.555-209.66 274.638-209.66 190.083 0 376.233 140.779 427.689 232.734h-196.966c0 0-99.302-74.236-200.572-74.236-69.478 0-151.739 44.809-134.042 177.899l558.78-0.337zM579.341 680.113c149.116 11.369 154.359-143.453 154.359-143.453h-382.459c0 0 78.984 131.749 228.099 143.453z" />
<glyph unicode="&#xe90d;" glyph-name="evolution" d="M730.189 714.911c1.148-1.707 2.295-3.413 3.546-5.12v-0.61c4.058-24.381 6.865-49.371 6.865-74.971 0-6.923-0.166-13.804-0.499-20.643 0.35 7.057 0.529 14.157 0.529 21.295 0 25.6-2.496 50.59-6.865 74.971 23.718-33.829 42.133-70.095 54.929-109.41 10.3-32 17.165-64.305 20.284-97.524 0.311-4.267 0.939-8.836 1.562-13.103v-3.051c-1.647-0.158-3.268-0.341-4.881-0.521-4.51-0.503-8.934-1.003-13.534-1.003l0.316 0.307c-7.65-0.265-15.27-0.58-22.878-0.892-18.722-0.772-37.376-1.54-56.188-1.549-0.077-0.218-0.158-0.435-0.239-0.653h-9.673c-24.034 0-47.753 0.917-71.471 2.743-47.437 3.657-94.251 11.584-139.814 26.21-42.133 13.41-81.145 32.61-116.099 59.734-26.528 20.724-49.31 44.8-68.972 71.924-19.974 27.429-36.515 56.99-50.871 87.771-11.001 23.314-21.476 46.629-31.95 69.943-3.491 7.771-6.983 15.543-10.494 23.314-0.098 0.191-0.196 0.323-0.284 0.441-0.193 0.259-0.34 0.456-0.34 1.083 8.739 4.267 17.789 8.533 26.84 12.495 30.897 13.714 63.042 23.467 96.748 29.867 18.726 3.352 37.763 5.486 56.8 6.095 0.937 0 3.433 0.61 3.433 0.61h26.528c0.937-0.305 1.873-0.61 3.121-0.61 22.784-0.609 45.253-3.657 67.725-8.228 36.203-7.619 70.532-19.81 103.3-36.876 50.249-26.514 92.689-61.867 127.019-106.362 2.061-2.56 3.785-5.12 5.508-7.68zM679.59 412.062c23.987 0.606 47.97 0.602 71.642-0.004v0.61c11.234-0.367 22.468-1.062 33.707-1.758 7.488-0.461 14.98-0.926 22.468-1.293h3.123v-3.959c-0.627-4.57-1.25-9.143-1.562-13.713-2.496-26.517-7.492-52.117-14.669-77.717-14.357-52.416-38.076-100.57-71.782-143.846-31.829-40.533-70.532-73.446-116.096-98.743-33.707-18.893-69.909-32.61-107.985-40.836-29.022-6.4-58.671-9.451-88.32-9.451-45.253 0-89.57 7.317-132.638 21.641-21.534 7.010-42.444 15.846-62.73 26.21-0.312 0.303-0.624 0.61-1.248 0.913 1.092 2.436 2.185 4.954 3.277 7.467s2.185 5.030 3.277 7.467c3.355 7.313 6.691 14.63 10.026 21.943 10.007 21.943 20.013 43.887 30.546 65.826 1.361 3.038 2.963 5.956 4.582 8.905 0.98 1.788 1.967 3.584 2.908 5.423l0.301 0.273c8.738 17.067 18.413 33.83 29.024 50.287 16.229 24.99 35.267 47.846 57.425 68.267 29.337 27.123 63.043 47.846 99.867 63.697 33.084 14.016 67.413 24.073 102.677 30.17 21.222 3.657 42.761 6.703 63.979 8.836v0.307c18.415 1.826 37.141 2.743 55.868 3.354h2.496l-0.162-0.273z" />
<glyph unicode="&#xe90e;" glyph-name="micro" d="M704.636 463.787c27.81-42.927 56.32-87.851 85.888-132.070 6.921-10.231 16.896-18.697 26.517-26.697 3.051-2.586 10.675-2.94 13.961-0.823 2.462 1.532 3.635 10.351 1.523 13.171-56.201 78.327-69.926 169.822-82.598 261.791-3.405 24.462-13.726 36.105-32.619 38.692-21.235 2.94-34.027-6.586-45.525-29.754-43.409-87.497-86.588-175.113-132.113-261.555-12.437-23.637-31.561-43.981-49.395-64.209-13.141-15.057-20.531-14.114-26.517 4.467-9.856 31.283-19.008 63.27-23.467 95.612-13.611 97.498-8.563 195.696-4.339 293.544 1.173 28.343 5.867 56.568 7.275 85.028 1.289 25.873-10.914 43.984-29.451 47.983-22.058 4.704-38.015-3.763-50.334-28.695-72.628-147.359-161.094-285.194-252.612-421.262-1.76-2.586-3.872-4.941-9.269-11.759-5.397 27.166-12.202 49.745-14.197 72.798-9.739 113.489 15.018 218.156 86.355 308.947 71.22 90.673 163.206 147.477 278.306 161.707 168.371 20.698 306.82-36.222 406.199-173.938 173.884-241.092 52.796-581.44-233.839-658.824-143.966-38.929-275.844-8.469-390.124 88.674-25.93 21.99-46.345 50.334-69.694 75.383-8.8 9.527-7.626 17.054-1.173 27.874 51.625 85.38 102.547 170.999 153.468 256.849 10.795 18.112 20.298 36.928 30.389 55.51l6.336-0.236c0-27.051-0.352-54.097 0-81.148 1.173-68.8 5.515-137.361 27.925-203.221 5.632-16.7 13.728-33.165 23.818-47.514 29.331-42.219 84.832-50.453 125.544-19.051 38.485 29.756 63.825 70.447 87.292 111.962 30.861 54.566 59.605 110.43 86.592 160.883l-0.119-0.119z" />
<glyph unicode="&#xe90f;" glyph-name="saba" d="M137.942 252.484c14.93-32.798 32.062-64.55 51.278-95.031l10.033-14.771c-9.647 25.267-17.926 51.038-24.803 77.197-12.541 10.59-24.803 21.457-36.508 32.606zM229.166 468.992c-1.908-18.517-2.838-37.124-2.787-55.74 0.073-48.845 6.062-97.506 17.836-144.913 74.363-60.783 163.5-100.787 258.339-115.934 25.621-4.177 51.52-6.413 77.478-6.69 49.958 12.275 97.587 32.61 141.013 60.198-97.041 1.374-192.341 25.975-277.918 71.748-85.579 45.773-158.947 111.377-213.962 191.33zM202.323 288.013c12.293-27.14 26.446-53.397 42.36-78.588l8.361-12.54c-8.127 20.941-15.013 42.342-20.623 64.098-10.311 8.636-20.344 17.557-30.098 27.029zM249.946 246.622c8.595-28.587 19.212-56.525 31.77-83.605 78.238-29.205 162.444-38.775 245.243-27.87l-27.87 3.622c-90.694 14.78-176.301 51.836-249.143 107.853zM227.42 282.432c-9.451 42.829-14.217 86.562-14.213 130.423-0.054 23.945 1.435 47.868 4.459 71.62-29.502 45.606-52.659 95.016-68.835 146.868-11.689-105.455 1.973-212.182 39.852-311.292 12.262-13.099 25.36-25.916 38.737-37.619zM482.129 439.607h-42.918v-38.46h43.196c2.603-0.047 5.188 0.448 7.586 1.455 2.402 1.007 4.565 2.505 6.349 4.399 1.805 1.839 3.226 4.019 4.181 6.409 0.956 2.394 1.429 4.949 1.395 7.526 0.090 2.573-0.371 5.137-1.348 7.518s-2.453 4.527-4.326 6.293c-1.869 1.766-4.096 3.115-6.532 3.951-2.432 0.841-5.018 1.148-7.582 0.909zM512 874.667c-84.386 0-166.878-25.024-237.043-71.906s-124.852-113.519-157.145-191.482c-32.294-77.962-40.743-163.752-24.28-246.517s57.099-158.788 116.77-218.462c59.67-59.669 135.695-100.305 218.46-116.766 82.765-16.465 168.555-8.017 246.515 24.277 77.965 32.294 144.602 86.98 191.484 157.146s71.906 152.657 71.906 237.043c-0.073 113.137-45.052 221.618-125.047 301.617-80 80-188.484 124.975-301.619 125.049zM825.242 349.069h-52.672l-59.081 109.244-123.179-44.591 41.805 75.802 55.735 102.836 137.391-243.29zM675.029 769.881l117.047-213.473h-52.949l-51.554 95.311-94.754-30.377 82.21 148.539zM575.262 588.178l64.375 20.623-27.87-52.393h-53.504l16.998 31.77zM572.753 381.675l64.375 19.226-27.866-52.39h-52.954l16.444 33.165zM549.901 503.735c0.375-16.060-5.295-31.671-15.885-43.75 10.56-11.767 16.243-27.115 15.885-42.918 0-17.766-7.036-34.807-19.571-47.394s-29.547-19.695-47.313-19.767h-90.015v169.161h47.378v-34.556h42.637c5.227 0.068 10.219 2.176 13.914 5.875 3.695 3.695 5.803 8.683 5.875 13.909-0.64 5.517-2.65 10.79-5.854 15.326 15.36 4.489 29.414 12.612 40.964 23.69 7.509-11.863 11.648-25.542 11.985-39.575zM522.031 771.832v-48.212h-76.915c-2.637 0-5.244-0.519-7.68-1.527-2.432-1.008-4.646-2.486-6.507-4.349-1.865-1.863-3.341-4.075-4.351-6.51s-1.527-5.044-1.527-7.679 0.519-5.244 1.527-7.679c1.010-2.435 2.487-4.646 4.351-6.51 1.86-1.863 4.075-3.341 6.507-4.349 2.436-1.009 5.043-1.527 7.68-1.527h23.966c18.065-0.145 35.345-7.386 48.119-20.159s20.015-30.055 20.16-48.119c-0.363-17.892-7.71-34.932-20.467-47.481s-29.918-19.613-47.812-19.682h-76.080v47.934h76.080c5.321 0 10.428 2.114 14.191 5.877s5.875 8.867 5.875 14.188c0 5.322-2.112 10.426-5.875 14.188s-8.87 5.877-14.191 5.877h-23.966c-18.108 0-35.475 7.194-48.28 19.998s-19.998 30.171-19.998 48.28c0 18.108 7.194 35.475 19.998 48.279s30.172 19.998 48.28 19.998l76.915-0.836zM856.457 214.464c-5.577-8.363-11.708-16.721-18.116-24.525-77.82-39.142-163.708-59.563-250.816-59.639h-6.409c-40.119-9.916-81.301-14.878-122.624-14.771h-18.671c-49.868 2.103-99.16 11.494-146.31 27.87 29.872-35.268 64.152-66.551 101.999-93.082-13.655 4.181-27.869 8.917-40.409 14.212-13.935 11.426-27.869 23.411-39.852 35.951 5.574-8.917 11.147-17.557 17-25.916-70.7 34.219-130.444 87.497-172.506 153.83 29.038-22.007 60.446-40.704 93.638-55.735-6.41 9.199-12.82 18.394-18.951 27.87-22.156 35.26-40.823 72.593-55.737 111.471-22.077 23.974-42.294 49.596-60.475 76.642-7.246 11.145-14.213 22.571-20.901 33.997v27.87c-0.080 74.953 20.144 148.531 58.524 212.915 14.752-56.087 37.663-109.702 67.999-159.129 20.075 131.852 83.057 253.407 179.194 345.848 8.639 2.508 17.278 4.459 26.196 6.41-108.448-95.493-178.557-227.096-197.309-370.374 54.102-82.846 127.985-150.916 214.982-198.063 86.993-47.147 184.358-71.885 283.307-71.983h11.426c49.421 33.877 91.179 77.747 122.573 128.777 31.398 51.029 51.733 108.083 59.686 167.467 3.115-20.851 4.698-41.899 4.74-62.98 0.026-82.615-24.623-163.354-70.788-231.868-36.681-7.795-73.988-12.275-111.475-13.376-35.52-24.567-74.125-44.335-114.816-58.803 78.302 6.575 154.304 29.756 222.946 67.998l1.954 1.118z" />
<glyph unicode="&#xe910;" glyph-name="vivo" d="M938.611 446.699c-1.937-232.934-186.462-423.283-424.444-425.348-235.012-2.065-429.35 189.961-428.833 424.96 0.517 233.967 188.914 425.218 418.243 428.316 238.242 3.226 435.806-185.574 435.034-427.927zM499.319 286.933h0.384c0 50.458-0.384 101.047 0.26 151.505 0.128 11.614-3.746 18.581-13.687 24.26-88.195 50.458-176.389 101.047-264.196 152.021-14.85 8.646-17.949 4.259-17.819-11.098 0.516-101.047 0.646-201.962 0.387-303.009 0-10.97 4.649-16.132 12.783-22.583 21.693-17.293 47.777-26.581 71.279-40.521 64.435-38.327 130.161-74.59 194.852-112.661 16.141-9.549 16.013-1.677 15.885 10.453-0.128 50.458 0 101.047 0 151.505l-0.128 0.128zM805.222 646.854c-5.167 3.613-7.492 5.936-10.462 7.098-90.001 37.682-180.002 75.236-270.135 112.918-9.165 3.872-17.69 3.485-27.115-0.516-71.795-30.585-143.978-60.266-215.644-90.98-19.369-8.259-40.029-14.066-57.978-26.068 1.808-2.323 2.324-3.742 3.229-4.387 91.293-53.169 182.586-106.208 273.751-159.503 9.553-5.551 17.562-3.358 26.342 1.677 53.585 30.972 107.302 61.684 160.892 92.527 38.353 21.938 76.574 44.006 116.86 67.235h0.26zM526.562 288.226h0.388c0-50.462 0.26-101.047-0.128-151.505 0-14.195 1.293-20.134 17.301-10.714 85.871 50.33 172.13 100.015 258.645 149.312 12.655 7.228 17.946 15.488 17.818 30.327-0.516 96.917 0 193.963-0.128 290.877 0 7.614 4.262 17.809-4.262 22.068-6.716 3.355-13.427-4.517-19.627-8.001-84.706-48.393-169.156-97.434-253.867-145.699-12.134-6.967-16.657-15.356-16.397-29.163 0.644-49.169 0.256-98.338 0.256-147.503zM378.206 355.085c-0.904-11.102-1.937-20.779-11.105-26.33-9.168-5.547-17.562-0.256-24.276 4.774-21.177 15.876-33.186 37.427-31.378 64.009 1.42 20.39 15.624 26.33 32.669 15.232 21.177-13.939 30.604-34.846 34.090-57.685zM449.788 391.569c-0.516-6.839-2.197-16.132-10.978-20.002-8.393-3.742-16.526-1.549-24.274 4.514-18.465 14.583-28.925 33.297-31.507 56.269-1.162 10.065 0 20.518 10.847 26.065 10.072 5.035 17.82 0.26 25.567-5.807 17.302-13.679 30.734-39.1 30.345-61.039zM306.118 310.234c-0.904-10.321-0.387-19.486-9.814-24.388-9.814-5.035-18.853-1.161-26.342 4.518-20.015 14.967-29.829 36.002-30.991 60.523-0.387 7.484 0 16.777 8.78 21.163 9.297 4.646 18.336 2.581 26.471-3.354 20.273-14.839 29.699-35.49 31.895-58.33v-0.132zM508.066 619.994c-14.852-0.646-30.605 2.065-44.809 10.969-16.269 10.195-17.045 27.229-0.26 36.65 31.509 17.68 64.435 17.938 96.461 1.291 18.206-9.55 18.334-26.971 0.644-37.94-15.236-9.55-32.542-12.518-52.169-11.098l0.132 0.129zM707.998 390.827c-0.516-22.195-8.393-40.909-26.21-54.455-17.95-13.683-34.351-6.839-37.060 15.356-3.102 25.037 6.844 44.779 26.21 59.75 7.36 5.679 16.657 9.805 26.214 3.998 9.041-5.547 10.718-14.839 10.718-24.516l0.128-0.132zM775.71 331.106c0-22.455-9.813-40.393-27.763-53.167-16.013-11.358-32.542-3.614-36.028 15.612-3.742 21.039 13.948 55.881 33.186 65.041 18.594 8.777 30.605-2.065 30.733-27.486h-0.128zM572.318 416.422c2.193 17.421 9.681 34.842 25.822 47.748 7.232 5.807 15.497 8.777 24.538 5.419 10.202-3.742 14.076-13.163 14.332-22.583 0.777-23.616-9.037-43.23-27.635-57.685-7.744-6.063-17.818-8.128-26.598-2.581-9.557 5.939-10.074 16.777-10.458 29.683zM571.686 230.362c1.549 20.134 9.297 40.265 29.568 53.299 16.917 10.842 29.7 4.902 33.702-14.711 4.134-20.518-7.748-51.234-24.794-61.943-8.521-5.291-18.078-10.453-28.147-4.39-9.041 5.423-10.074 15.1-10.202 27.746h-0.128zM713.941 487.377c0.777 20.907 9.946 38.46 27.119 50.976 17.045 12.518 33.83 4.387 35.379-16.259 1.549-20.651-4.39-38.46-19.499-53.043-8.649-8.388-18.978-14.195-30.989-10.065-13.171 4.518-10.718 17.037-11.878 28.39h-0.132z" />
<glyph unicode="&#xe911;" glyph-name="about-us" d="M511.949 528.009c59.571 0 108.16 48.622 108.16 108.162 0 59.574-48.572 108.163-108.16 108.163-59.541 0-108.163-48.572-108.163-108.163 0-59.557 48.622-108.162 108.163-108.162zM770.21 443.9c44.659 0 81.079 36.437 81.079 81.075 0 44.604-36.437 81.025-81.079 81.025-44.604 0-81.024-36.438-81.024-81.025 0-44.655 36.42-81.075 81.024-81.075zM253.684 443.9c44.655 0 81.027 36.437 81.027 81.075 0 44.604-36.388 81.025-81.027 81.025s-81.026-36.438-81.026-81.025c-0.017-44.655 36.371-81.075 81.026-81.075zM254.534 198.003c7.701 66.441 27.92 126.963 57.073 176.435-18.102 9.685-37.605 15.019-57.924 15.019-41.005 0-78.859-21.683-108.396-57.638-31.004-37.756-52.823-91.046-59.857-151.77-1.317-11.567 4.534-28.301 18.285-28.301h160.553c-3.684 5.999-6.434 12.467-8.134 19.285-2.117 8.55-2.684 17.566-1.6 26.97zM335.227 358.656c-26.737-45.79-45.306-101.965-52.49-163.87-2.133-18.385 7.884-43.038 29.103-43.038h400.198c21.218 0 31.236 24.67 29.103 43.038-7.185 61.888-25.754 118.080-52.437 163.87-37.321 63.974-98.714 119.731-176.755 119.731s-139.384-55.757-176.721-119.731zM712.29 374.438c29.201-49.472 49.421-109.995 57.122-176.435 1.882-16.303-1.135-32.222-9.737-46.255h160.555c13.751 0 19.567 16.866 18.236 28.301-7.036 60.723-28.821 114.014-59.823 151.77-29.538 35.955-67.426 57.638-108.446 57.638-20.254 0-39.774-5.333-57.907-15.019z" />
<glyph unicode="&#xe912;" glyph-name="all" d="M469.325 277.359v-127.97c0-70.383-57.602-127.974-127.997-127.974h-127.997c-70.394 0-127.997 57.591-127.997 127.974v127.97c0 70.383 57.603 127.974 127.997 127.974h127.997c70.394 0 127.997-57.591 127.997-127.974zM469.325 746.694v-127.973c0-70.38-57.602-127.974-127.997-127.974h-127.997c-70.394 0-127.997 57.594-127.997 127.974v127.973c0 70.38 57.603 127.972 127.997 127.972h127.997c70.394 0 127.997-57.592 127.997-127.972zM938.752 277.359v-127.97c0-70.383-57.604-127.974-128-127.974h-127.996c-70.396 0-128 57.591-128 127.974v127.97c0 70.383 57.604 127.974 128 127.974h127.996c70.396 0 128-57.591 128-127.974zM938.752 746.694v-127.973c0-70.38-57.604-127.974-128-127.974h-127.996c-70.396 0-128 57.594-128 127.974v127.973c0 70.38 57.604 127.972 128 127.972h127.996c70.396 0 128-57.592 128-127.972z" />
<glyph unicode="&#xe913;" glyph-name="angles-down-small" d="M705.271 427.917c12.501-12.501 12.501-32.772 0-45.274l-170.667-170.667c-6.229-6.229-14.421-9.382-22.613-9.382s-16.388 3.11-22.618 9.382l-170.665 170.667c-12.501 12.501-12.501 32.772 0 45.274s32.77 12.501 45.271 0l148.054-148.053 148.049 148.053c12.459 12.501 32.687 12.501 45.188 0zM489.374 468.019c6.229-6.229 14.426-9.387 22.618-9.387s16.384 3.115 22.613 9.387l170.667 170.667c12.501 12.501 12.501 32.77 0 45.271s-32.768 12.501-45.269 0l-148.053-148.052-148.052 148.052c-12.501 12.501-32.769 12.501-45.271 0s-12.501-32.77 0-45.271l170.748-170.667z" />
<glyph unicode="&#xe914;" glyph-name="angles-left-small" d="M491.938 596.020l-148.052-148.054 148.052-148.049c12.501-12.501 12.501-32.772 0-45.274-6.229-6.229-14.421-9.382-22.613-9.382s-16.388 3.11-22.618 9.382l-170.665 170.667c-12.501 12.501-12.501 32.772 0 45.274l170.665 170.665c12.506 12.501 32.772 12.501 45.274 0s12.459-32.728-0.043-45.229zM599.927 447.966l148.053 148.054c12.501 12.501 12.501 32.77 0 45.271s-32.768 12.501-45.269 0l-170.671-170.665c-12.501-12.506-12.501-32.772 0-45.274l170.671-170.667c6.229-6.229 14.421-9.387 22.613-9.387s16.384 3.115 22.613 9.387c12.501 12.501 12.501 32.768 0 45.269l-148.011 148.011z" />
<glyph unicode="&#xe915;" glyph-name="angles-right-small" d="M747.981 425.31l-170.667-170.667c-6.229-6.229-14.421-9.382-22.613-9.382s-16.388 3.11-22.618 9.382c-12.501 12.501-12.501 32.772 0 45.274l148.053 148.049-148.053 148.054c-12.501 12.501-12.501 32.77 0 45.271s32.772 12.501 45.274 0l170.667-170.665c12.459-12.591 12.459-32.815-0.043-45.316zM321.314 641.207c-12.501 12.501-32.77 12.501-45.271 0s-12.501-32.77 0-45.271l148.052-148.052-148.052-148.053c-12.501-12.501-12.501-32.768 0-45.269 6.229-6.229 14.423-9.387 22.615-9.387s16.385 3.115 22.615 9.387l170.666 170.667c12.501 12.501 12.501 32.768 0 45.269l-170.624 170.709z" />
<glyph unicode="&#xe916;" glyph-name="angles-up-small" d="M318.751 468.019c-12.501 12.501-12.501 32.768 0 45.274l170.665 170.665c12.501 12.501 32.772 12.501 45.274 0l170.667-170.665c12.501-12.506 12.501-32.772 0-45.274-6.229-6.229-14.426-9.387-22.618-9.387s-16.384 3.115-22.613 9.387l-148.053 148.053-148.051-148.053c-12.544-12.501-32.769-12.501-45.271 0zM534.647 427.917c-12.501 12.501-32.768 12.501-45.274 0l-170.665-170.667c-12.501-12.501-12.501-32.772 0-45.274s32.77-12.501 45.271 0l148.054 148.053 148.049-148.053c6.229-6.229 14.426-9.382 22.618-9.382s16.384 3.11 22.613 9.382c12.501 12.501 12.501 32.772 0 45.274l-170.667 170.667z" />
<glyph unicode="&#xe917;" glyph-name="arrow-down" d="M469.312 166.997l-225.835 225.835c-16.64 16.64-43.691 16.64-60.331 0s-16.64-43.691 0-60.331l298.667-298.667c16.64-16.683 43.691-16.683 60.331 0l298.667 298.667c16.64 16.64 16.64 43.691 0 60.331s-43.691 16.64-60.331 0l-225.835-225.835v665.003c0 23.552-19.115 42.667-42.667 42.667s-42.667-19.115-42.667-42.667v-665.003z" />
<glyph unicode="&#xe918;" glyph-name="arrow-down-square" d="M752 832h-480c-96 0-144-48-144-144v-480c0-96 48-144 144-144h480c96 0 144 48 144 144v480c0 96-48 144-144 144zM662.613 382.72l-128-128c-2.944-2.944-6.481-5.286-10.364-6.908s-8.068-2.479-12.25-2.479c-4.181 0-8.324 0.858-12.25 2.479s-7.42 3.964-10.364 6.908l-128.001 128c-12.501 12.501-12.501 32.768 0 45.269s32.77 12.501 45.271 0l73.386-73.387v264.064c0 17.664 14.336 32 32 32s32-14.336 32-32v-264.064l73.382 73.387c12.501 12.501 32.772 12.501 45.274 0s12.416-32.768-0.085-45.269z" />
<glyph unicode="&#xe919;" glyph-name="arrow-export" d="M322.371 106.667h379.257c40.235 0 78.822 15.983 107.273 44.433s44.433 67.038 44.433 107.273v379.257c0 40.236-15.983 78.822-44.433 107.27-28.45 28.452-67.038 44.434-107.273 44.434h-379.257c-40.236 0-78.822-15.982-107.27-44.434-28.452-28.448-44.434-67.034-44.434-107.27v-379.257c0-40.235 15.982-78.822 44.434-107.273 28.448-28.45 67.034-44.433 107.27-44.433zM425.529 401.732l219.591 219.589h-92.16c-7.543 0-14.78 2.996-20.113 8.332-5.333 5.332-8.333 12.569-8.333 20.112s2.999 14.78 8.333 20.112c5.333 5.336 12.57 8.332 20.113 8.332h160.806c3.785-0.288 7.497-1.183 10.999-2.655 6.891-3.008 12.335-8.586 15.168-15.549 1.515-3.471 2.287-7.214 2.278-10.999v-160.047c0-7.543-2.999-14.78-8.333-20.113s-12.57-8.333-20.113-8.333c-7.543 0-14.78 2.999-20.113 8.333s-8.333 12.57-8.333 20.113v92.16l-219.588-219.593c-5.393-5.022-12.527-7.757-19.895-7.629-7.369 0.132-14.4 3.115-19.61 8.329-5.211 5.21-8.196 12.241-8.329 19.61-0.129 7.369 2.606 14.502 7.631 19.895z" />
<glyph unicode="&#xe91a;" glyph-name="arrow-import" d="M701.628 789.333h-379.257c-40.235 0-78.821-15.983-107.271-44.433s-44.433-67.036-44.433-107.271v-379.257c0-40.239 15.983-78.822 44.433-107.273s67.036-44.433 107.271-44.433h379.257c40.239 0 78.822 15.983 107.273 44.433s44.433 67.034 44.433 107.273v379.257c0 40.235-15.983 78.821-44.433 107.271s-67.034 44.433-107.273 44.433zM598.473 494.268l-219.593-219.588h92.16c7.543 0 14.78-2.995 20.113-8.333 5.333-5.333 8.333-12.57 8.333-20.113s-2.999-14.78-8.333-20.113c-5.333-5.333-12.57-8.333-20.113-8.333h-160.806c-3.785 0.29-7.499 1.186-10.999 2.658-6.891 3.008-12.335 8.585-15.17 15.548-1.513 3.469-2.287 7.215-2.276 10.999v160.047c0 7.543 2.997 14.78 8.332 20.113s12.569 8.333 20.113 8.333c7.544 0 14.779-2.999 20.113-8.333s8.331-12.57 8.331-20.113v-92.16l219.589 219.591c5.393 5.024 12.527 7.759 19.895 7.63s14.4-3.116 19.61-8.327c5.21-5.211 8.196-12.242 8.329-19.611 0.128-7.369-2.607-14.502-7.629-19.895z" />
<glyph unicode="&#xe91b;" glyph-name="arrow-left" d="M231.008 490.688l225.837 225.835c16.64 16.64 16.64 43.691 0 60.331s-43.693 16.64-60.333 0l-298.667-298.667c-16.683-16.64-16.683-43.691 0-60.331l298.667-298.667c16.64-16.64 43.693-16.64 60.333 0s16.64 43.691 0 60.331l-225.837 225.835h665.001c23.552 0 42.667 19.115 42.667 42.667s-19.115 42.667-42.667 42.667h-665.001z" />
<glyph unicode="&#xe91c;" glyph-name="arrow-left-square" d="M752 832h-480c-96 0-144-48-144-144v-480c0-96 48-144 144-144h480c96 0 144 48 144 144v480c0 96-48 144-144 144zM682.667 416h-264.062l73.385-73.387c12.501-12.501 12.501-32.768 0-45.269-6.229-6.229-14.421-9.387-22.613-9.387s-16.388 3.115-22.618 9.387l-127.998 128c-2.944 2.944-5.285 6.481-6.906 10.406-3.243 7.808-3.243 16.64 0 24.448 1.621 3.925 3.962 7.471 6.906 10.415l127.998 128.001c12.501 12.501 32.772 12.501 45.274 0s12.501-32.77 0-45.271l-73.386-73.386h264.021c17.664 0 32-14.336 32-32s-14.336-31.957-32-31.957z" />
<glyph unicode="&#xe91d;" glyph-name="arrow-right" d="M793.003 490.688l-225.835 225.835c-16.64 16.64-16.64 43.691 0 60.331s43.691 16.64 60.331 0l298.667-298.667c16.683-16.64 16.683-43.691 0-60.331l-298.667-298.667c-16.64-16.64-43.691-16.64-60.331 0s-16.64 43.691 0 60.331l225.835 225.835h-665.003c-23.552 0-42.667 19.115-42.667 42.667s19.115 42.667 42.667 42.667h665.003z" />
<glyph unicode="&#xe91e;" glyph-name="arrow-right-square" d="M752 832h-480c-96 0-144-48-144-144v-480c0-96 48-144 144-144h480c96 0 144 48 144 144v480c0 96-48 144-144 144zM712.188 435.75c-1.621-3.925-3.964-7.462-6.908-10.406l-128-128c-6.229-6.229-14.421-9.387-22.613-9.387s-16.384 3.115-22.613 9.387c-12.501 12.501-12.501 32.768 0 45.269l73.382 73.387h-264.102c-17.664 0-32 14.336-32 32s14.336 32 32 32h264.064l-73.387 73.385c-12.501 12.501-12.501 32.77 0 45.271s32.768 12.501 45.269 0l128-128c2.944-2.944 5.286-6.481 6.908-10.406 3.243-7.851 3.243-16.649 0-24.499z" />
<glyph unicode="&#xe91f;" glyph-name="arrow-up" d="M469.312 728.992l-225.835-225.833c-16.64-16.64-43.691-16.64-60.331 0s-16.64 43.689 0 60.329l298.667 298.667c16.64 16.683 43.691 16.683 60.331 0l298.667-298.667c16.64-16.64 16.64-43.689 0-60.329s-43.691-16.64-60.331 0l-225.835 225.833v-665.001c0-23.552-19.115-42.667-42.667-42.667s-42.667 19.115-42.667 42.667v665.001z" />
<glyph unicode="&#xe920;" glyph-name="arrow-up-square" d="M752 832h-480c-96 0-144-48-144-144v-480c0-96 48-144 144-144h480c96 0 144 48 144 144v480c0 96-48 144-144 144zM662.613 468.053c-6.229-6.229-14.421-9.387-22.613-9.387s-16.384 3.115-22.613 9.387l-73.387 73.384v-264.104c0-17.664-14.336-32-32-32s-32 14.336-32 32v264.062l-73.385-73.385c-12.501-12.501-32.77-12.501-45.271 0s-12.501 32.768 0 45.269l128 128.001c2.944 2.944 6.481 5.285 10.406 6.906 7.808 3.243 16.64 3.243 24.448 0 3.925-1.621 7.471-3.962 10.415-6.906l128-128.001c12.501-12.501 12.501-32.725 0-45.227z" />
<glyph unicode="&#xe921;" glyph-name="bank" d="M860.881 133.909h-698.132c-19.288 0-34.915-15.629-34.915-34.931 0-19.273 15.627-34.901 34.915-34.901h698.119c19.285 0 34.914 15.629 34.914 34.901-0.017 19.302-15.646 34.931-34.901 34.931zM206.378 224.678c-19.289 0-34.915-15.625-34.915-34.914s15.627-34.931 34.915-34.931h610.86c19.29 0 34.914 15.642 34.914 34.931s-15.625 34.914-34.914 34.914h-8.713v314.176h8.713c9.66 0 17.442 7.814 17.442 17.442s-7.812 17.441-17.442 17.441h-610.86c-9.644 0-17.441-7.814-17.441-17.441s7.814-17.442 17.441-17.442h8.729v-314.159l-8.729-0.017zM738.692 538.854v-314.159h-104.713v314.159h104.713zM564.147 538.854v-314.159h-104.713v314.159h104.713zM284.905 538.854h104.714v-314.159h-104.714v314.159zM162.749 605.122h698.119c0.111 0 0.243 0 0.341 0 19.307 0 34.914 15.627 34.914 34.915 0 15.333-9.873 28.328-23.586 33.036l-346.377 155.862c-9.105 4.086-19.52 4.086-28.638 0l-349.093-157.071c-15.023-6.767-23.277-23.081-19.812-39.166 3.449-16.084 17.67-27.576 34.131-27.576z" />
<glyph unicode="&#xe922;" glyph-name="bao-tri" d="M446.605 208.098c-21.087 70.707-83.027 116.066-155.51 116.066s-133.105-45.359-155.509-116.066c-21.086-69.367 2.636-141.406 60.622-182.763 1.318-1.335 2.636-2.667 3.953-2.667s1.318-1.335 2.636-1.335h2.636c2.636 0 5.272 1.335 6.589 1.335s1.318 1.331 2.636 1.331c1.318 1.335 1.318 1.335 2.636 2.671l1.318 1.331v2.671c0 1.331 0 1.331 0 2.667v108.058l71.165 53.363 73.801-53.363v-109.393c0-1.331 0-1.331 1.318-2.667 0-1.335 1.318-1.335 1.318-2.667 1.318-1.335 1.318-1.335 2.636-2.671 1.318-1.331 1.318-1.331 2.636-1.331s1.318-1.335 2.636-1.335h6.589c1.318 0 1.318 0 2.636 1.335 1.318 1.331 3.953 1.331 5.271 2.667 55.35 41.357 79.073 113.395 57.987 182.763zM291.095 572.295c72.483 0 133.105 45.358 155.51 116.062 21.086 70.705-2.637 142.743-61.941 184.099-3.953 2.668-9.225 2.668-13.178 1.334-3.954-2.668-6.589-6.67-6.589-12.006v-108.058l-73.801-53.362-71.165 53.362v106.724c0 4.003-1.318 8.005-3.953 10.673-5.271 4.002-11.861 4.002-15.815 1.334-60.622-41.356-85.662-113.394-63.258-184.099 21.086-70.705 81.708-116.062 154.192-116.062zM210.705 564.291v-230.791c25.039 12.006 51.397 17.344 80.39 17.344s56.669-6.669 80.39-17.344v230.791c-25.040-12.006-51.397-17.342-80.39-17.342s-55.351 5.336-80.39 17.342zM885.457 517.598l-94.886 16.010c-5.274 21.345-14.498 41.356-25.041 61.366l55.351 78.709c3.955 5.336 2.637 12.006-1.318 17.343l-79.070 80.043c-5.274 4.002-11.861 5.336-17.135 1.334l-77.756-56.030c-19.767 10.673-39.535 20.011-60.621 25.347l-15.817 94.717c-1.314 6.671-6.588 10.673-13.175 10.673h-109.385c34.266-48.026 43.49-108.058 25.041-168.090-13.18-42.69-39.539-77.375-72.485-101.388v-28.015c23.722 22.679 56.669 36.019 92.253 36.019 75.119 0 137.058-62.7 137.058-138.741s-61.939-138.739-137.058-138.739c-35.584 0-67.213 13.338-92.253 36.019v-28.015c34.264-24.013 59.305-58.701 72.485-101.389 18.449-60.032 7.906-121.399-26.359-169.425h110.703c6.588 0 11.861 5.338 13.175 10.671l15.817 96.051c21.086 6.673 42.172 14.677 60.621 25.348l77.756-56.030c5.274-4.002 11.861-4.002 17.135 1.335l79.070 80.043c5.274 4.002 5.274 12.006 1.318 17.34l-55.351 78.711c10.543 20.011 19.767 40.021 25.041 61.367l94.886 16.009c6.588 1.331 10.543 6.669 10.543 13.338v113.395c0 8.004-3.955 13.342-10.543 14.673z" />
<glyph unicode="&#xe923;" glyph-name="bet" d="M364.928 616.704h-38.22v-25.042h38.22c6.644 0 12.047 5.611 12.047 12.511s-5.403 12.531-12.047 12.531zM357.883 678.877c0 6.9-5.403 12.512-12.047 12.512h-19.129v-25.042h19.129c6.644 0 12.047 5.631 12.047 12.531zM460.911 500.638c4.813 6.801 11.017 12.71 18.5 17.19 26.995 16.18 61.090 8.307 79.172-17.19 1.314-1.865 2.556-3.827 3.703-5.867l24.282-43.703h106.108c12.89 6.268 27.358 7.616 41.276 3.729 1.263-0.358 2.522-0.734 3.742-1.169 5.175 8.444 12.275 15.543 20.868 20.698 0.896 0.538 1.813 1.054 2.731 1.527 13.402 7.138 28.655 8.845 43.298 4.762 2.731-0.755 5.402-1.707 7.962-2.837 8.819-3.849 16.55-9.775 22.677-17.348 26.121 13.999 44.028 42.313 44.028 74.908v212.395c0 46.456-36.407 84.268-81.139 84.268h-588.981c-44.75 0-81.137-37.812-81.137-84.268v-212.395c0-46.475 36.388-84.269 81.137-84.269h241.103c-1.583 8.269-1.51 16.695 0.094 24.785 1.758 8.905 5.329 17.391 10.577 24.785zM597.414 691.362c-13.193 0-23.863 11.084-23.863 24.785s10.671 24.785 23.863 24.785h106.948c13.193 0 23.863-11.104 23.863-24.785s-10.671-24.785-23.863-24.785h-29.611v-124.439c0-13.681-10.692-24.785-23.863-24.785-13.175 0-23.863 11.104-23.863 24.785v124.439h-29.611zM424.734 604.219c0-34.223-26.804-62.081-59.775-62.081h-62.084c-13.173 0-23.864 11.104-23.864 24.785v149.224c0 13.681 10.691 24.785 23.864 24.785h42.993c32.97 0 59.774-27.858 59.774-62.1 0-8.823-1.795-17.21-5.002-24.824 14.624-11.322 24.093-29.424 24.093-49.787zM537.007 542.138h-70.673c-13.193 0-23.863 11.104-23.863 24.785v149.224c0 13.681 10.671 24.785 23.863 24.785h70.673c13.193 0 23.868-11.104 23.868-24.785s-10.675-24.785-23.868-24.785h-46.81v-25.042h34.27c13.193 0 23.863-11.104 23.863-24.785s-10.671-24.785-23.863-24.785h-34.27v-25.042h46.81c13.193 0 23.868-11.104 23.868-24.785s-10.675-24.785-23.868-24.785zM871.573 347.409l-50.842 91.447c-10.155 18.278-32.666 24.546-50.266 13.999-17.604-10.551-23.637-33.929-13.478-52.207l-6.895 12.412c-10.155 18.278-32.661 24.546-50.266 13.999-17.6-10.551-23.633-33.929-13.478-52.207l-6.891 12.412c-10.159 18.278-32.666 24.546-50.266 13.999-17.604-10.551-23.637-33.929-13.478-52.207l-74.133 133.359c-10.155 18.283-32.666 24.55-50.266 13.999-17.604-10.547-23.637-33.924-13.478-52.207l112.102-201.647-1.050-0.695-80.585 48.32c-17.6 10.551-40.111 4.284-50.266-13.995-10.159-18.283-4.126-41.66 13.478-52.207l84.954-65.472c50.231-90.377 161.51-121.348 248.529-69.158 87.019 52.186 116.838 167.74 66.59 258.116l-0.017-0.060z" />
<glyph unicode="&#xe924;" glyph-name="bet-history" d="M796.036 690.869c-61.555 63.673-141.218 104.162-227.678 116.478l24.64 24.643c9.766 9.763 9.766 25.591 0 35.355-9.762 9.762-25.591 9.762-35.354 0l-63.313-63.31c-9.762-9.762-9.762-25.591 0-35.355l63.313-63.31c4.881-4.881 11.277-7.323 17.677-7.323 6.396 0 12.796 2.442 17.677 7.323 9.762 9.762 9.762 25.592 0 35.355l-14.161 14.159c68.689-13.442 131.686-47.498 181.248-98.765 62.511-64.66 96.934-149.815 96.934-239.773 0.004-190.238-154.769-345.011-345.007-345.011-190.24 0-345.013 154.773-345.013 345.011 0 72.593 22.278 142.032 64.428 200.812 41.275 57.562 98.175 100.513 164.553 124.21 13.003 4.643 19.78 18.947 15.138 31.952-4.642 13.003-18.948 19.78-31.952 15.138-76.005-27.135-141.143-76.295-188.375-142.163-48.277-67.327-73.793-146.842-73.793-229.948 0-105.515 41.088-204.71 115.697-279.317 74.608-74.603 173.803-115.691 279.316-115.691 105.51 0 204.706 41.088 279.313 115.695s115.695 173.803 115.695 279.313c0 102.997-39.415 200.492-110.985 274.523zM487.932 290.965c-20.621-16.115-47.595-30.737-77.554-30.737-75.34 0-127.94 52.514-127.961 127.684 0 82.88 65.359 136.427 128.571 188.205l0.435 0.357c29.704 24.357 60.407 49.536 84.001 77.448 4.002 4.695 9.835 7.412 15.962 7.412h1.22c6.127 0 11.959-2.716 15.94-7.412 23.475-27.834 54.037-52.896 83.622-77.155l0.815-0.67c63.189-51.779 128.529-105.347 128.529-188.205 0-75.149-52.642-127.663-127.94-127.663-29.935 0-56.845 14.601-77.436 30.703 12.902-43.742 30.921-92.791 53.952-127.424-51.695 8.947-104.188 9.348-156.284 0 23.215 34.641 41.254 83.703 54.127 127.458z" />
<glyph unicode="&#xe925;" glyph-name="bin" d="M230.793 646.114c0-6.001 19.709-347.916 29.711-510.101 2.795-44.855 31.917-72.013 76.483-72.013h346.526c50.743 0 77.513 26.556 80.602 78.016 8.235 138.628 28.237 476.642 29.709 504.248l-563.029-0.15zM630.118 304.798c18.974-19.354 18.974-50.709 0-70.063s-49.711-19.354-68.685 0l-49.126 50.108-49.126-50.108c-18.974-19.354-49.713-19.354-68.686 0s-18.973 50.709 0 70.063l49.123 50.108-49.123 50.261c-18.973 19.354-18.973 50.709 0 70.063s49.712 19.354 68.686 0l49.126-50.108 49.126 50.108c18.974 19.354 49.711 19.354 68.685 0s18.974-50.709 0-70.063l-49.122-50.261 49.122-50.108zM793.233 782.64c-39.859 0.3-79.569 0.6-119.283-0.15-2.355 27.905-25.297 49.51-52.804 49.51h-218.561c-27.504 0-50.449-21.604-52.655-49.51-40.889 0.75-81.925 0.45-122.813 0.15-21.474-0.3-37.065-12.452-42.212-31.656-8.972-33.457 10.884-61.062 44.86-61.212 94.28-0.3 188.412-0.15 282.544-0.15h280.631c30.447 0 47.949 17.403 48.098 46.359 0.145 28.956-17.506 46.509-47.804 46.659z" />
<glyph unicode="&#xe926;" glyph-name="cancel" d="M813.833 749.834c-166.477 166.443-437.216 166.443-603.695 0-166.406-166.443-166.406-437.254 0-603.697 83.239-83.204 192.552-124.787 301.866-124.787 109.316 0 218.59 41.587 301.828 124.787 166.447 166.443 166.447 437.254 0 603.697zM688.051 322.219c13.909-13.905 13.909-36.39 0-50.295-6.938-6.938-16.043-10.423-25.152-10.423-9.105 0-18.214 3.486-25.148 10.423l-125.747 125.781-125.713-125.747c-6.972-6.933-16.079-10.423-25.15-10.423-9.106 0-18.214 3.49-25.15 10.423-13.908 13.909-13.908 36.429 0 50.3l125.714 125.747-125.749 125.748c-13.908 13.908-13.908 36.425 0 50.298 13.873 13.908 36.39 13.908 50.299 0l125.746-125.746 125.747 125.746c13.909 13.908 36.39 13.908 50.3 0 13.909-13.873 13.909-36.39 0-50.298l-125.747-125.748 125.751-125.786z" />
<glyph unicode="&#xe927;" glyph-name="caret-down" d="M456.435 303.104l-186.874 221.615c-31.403 37.248-4.781 93.948 44.115 93.948h396.625c48.896 0 75.516-56.742 44.113-93.948l-186.876-221.615c-28.971-34.347-82.133-34.347-111.104 0z" />
<glyph unicode="&#xe928;" glyph-name="caret-left" d="M367.093 503.565l221.613 186.874c37.248 31.403 93.948 4.781 93.948-44.115v-396.625c0-48.896-56.742-75.516-93.948-44.113l-221.613 186.876c-34.347 28.971-34.347 82.133 0 111.104z" />
<glyph unicode="&#xe929;" glyph-name="caret-right" d="M656.896 392.461l-221.615-186.876c-37.248-31.403-93.948-4.783-93.948 44.113v396.625c0 48.896 56.742 75.517 93.948 44.115l221.615-186.874c34.347-28.971 34.347-82.133 0-111.104z" />
<glyph unicode="&#xe92a;" glyph-name="caret-up" d="M567.539 592.907l186.876-221.613c31.403-37.248 4.783-93.948-44.113-93.948h-396.625c-48.896 0-75.517 56.742-44.115 93.948l186.874 221.613c28.971 34.347 82.133 34.347 111.104 0z" />
<glyph unicode="&#xe92b;" glyph-name="casino" d="M565.38 21.333h-272.078c-0.214 26.556-5.76 52.514-15.116 77.376-12.677 33.677-25.592 67.281-38.7 100.791-8.154 20.855-12.215 42.061-5.52 64.004 3.69 12.151 9.746 21.252 17.483 27.085l0.045 0.030c0.074 0.047 0.134 0.090 0.208 0.154l0.251 0.196 0.21 0.154c8.020 6.123 16.322 7.945 25.756 6.916 5.758-0.414 11.843-1.894 18.167-4.527 7.759-2.722 16.319-6.409 25.975-10.564 5.175-2.227 10.67-4.595 16.519-7.019 112.129 61.939 152.986-17.489 152.986-17.489 6.545-10.313 10.816-22.14 12.484-35.605 1.353-11.051-1.31-21.116-5.282-31.185-0.832-2.112-1.668-4.22-2.505-6.332-4.484-11.319-8.981-22.66-12.553-34.278-9.361-30.498-0.405-56.401 21.53-77.577 7.245-7.002 15.181-13.235 23.121-19.473 4.868-3.827 9.745-7.659 14.464-11.669 7.902-6.716 15.445-13.692 22.554-20.988zM406.714 874.667c-76.369 0-131.095-38.76-167.759-104.346-27.881-49.868-33.696-104.187-29.613-160.233 1.911-26.23 3.528-52.542 3.953-78.836 0.31-18.551-3.299-36.762-11.319-53.798-6.974-14.818-18.195-25.139-33.941-29.619-16.742-4.762-32.095-1.126-44.231 11.524-11.825 12.326-12.266 27.157-6.844 42.581 0.475 1.378 1.044 2.714 1.615 4.058 0.253 0.593 0.508 1.195 0.753 1.796l-0.158 0.175c-0.5 0.559-0.989 1.105-1.492 1.651-1.343-0.998-2.733-1.946-4.123-2.897-3.007-2.052-6.016-4.105-8.552-6.626-18.457-18.355-22.622-41.131-17.853-65.519 7.072-36.173 31.638-58.833 62.492-76.83 24.19 22.302 54.080 30.925 85.62 36.663 1.382 0.981 2.653 1.924 3.844 2.82-2.28-2.108-4.481-4.454-6.6-7.044-4.3-5.265-8.422-10.679-12.498-16.145-6.73-9.033-13.437-18.086-20.143-27.14-13.101-17.681-26.201-35.366-39.477-52.915-65.732-86.882 25.484-151.526 106.819-209.169l4.437-3.145c-4.361 8.661-9.109 17.583-13.954 26.684-19.734 37.077-41.073 77.163-44.318 114.829-1.503 17.566-2.857 34.995 2.916 52.177 10.058 29.884 29.743 44.497 60.26 44.42 19.149-0.043 36.439-6.562 52.806-16.004 4.94-2.863 9.076-3.106 14.581-1.455 4.654 1.395 9.304 2.863 13.96 4.335 15.497 4.89 31.044 9.801 46.925 11.977 40.384 5.525 74.901-7.023 99.81-42.091 9.003-12.685 15.74-26.411 18.641-43.413 1.958 4.343 3.84 8.563 5.679 12.689l0.055 0.119c3.972 8.9 7.765 17.404 11.703 25.813 8.009 17.075 10.342 17.075 24.478 5.449 29.205-24.026 58.445-48.064 88.499-70.938 26.577-20.228 55.62-36.267 87.475-46.182 19.209-5.982 30.221-1.361 37.389 17.6 0.798 2.099 1.6 4.203 2.402 6.31 6.895 18.074 13.901 36.437 16.764 55.309 4.186 27.563 6.857 55.364 9.523 83.17 1.391 14.485 2.782 28.979 4.39 43.43 2.278 20.595 5.116 41.114 7.962 61.632l0.772 5.589c0.951 6.852 4.463 9.472 11.959 8.337 1.711-0.256 3.43-0.546 5.154-0.841 10.278-1.737 20.813-3.516 30.737 1.408 42.449 21.069 52.553 62.016 32.256 103.071-2.944 5.952-9.003 5.876-11.068-0.413-1.685-5.086-1.502-10.95-1.323-16.539l0.043-1.289c0.094-2.91 0.823-5.807 1.51-8.546 0.303-1.195 0.593-2.355 0.823-3.477-1.391-8.205-8.495-24.742-25.801-25.263-11.575-0.124-23.181-0.478-34.684-1.715-30.605-3.307-48.606-20.949-53.875-51.887-10.342-60.838-30.635-118.434-54.665-175.859-34.061 26.961-66.389 54.596-92.25 89.374-1.643 2.21-3.277 4.425-4.911 6.643-7.36 9.98-14.729 19.972-22.81 29.286-15.757 18.146-35.652 28.399-59.712 27.358-6.699-0.286-13.35-1.847-19.998-3.409-2.564-0.602-5.129-1.203-7.689-1.732-21.559-4.454-50.842 5.645-55.292 37.197-0.841 5.965-1.459 11.959-2.074 17.954-0.606 5.897-1.216 11.789-2.035 17.655-1.933 13.939 1.771 24.222 12.113 34.778 31.65 32.348 43.507 72.3 35.102 117.546-5.257 28.293-22.861 48.997-40.576 69.835-2.645 3.108-5.295 6.225-7.902 9.365-0.333-0.436-0.623-0.781-0.866-1.073-0.444-0.528-0.742-0.885-0.905-1.298-15.859-40.182-45.946-64.052-84.572-78.191-7.692-2.815-15.34-5.784-22.899-8.936-9.389-3.902-14.566-11.17-12.751-21.575 2.396-13.679 4.895-27.527 9.24-40.64 6.175-18.576 18.019-33.833 30.755-48.293 1.994-2.261 4.181-5.615 4.062-8.367-0.081-2.005-0.153-4.019-0.225-6.029-0.401-11.243-0.805-22.554-2.9-33.481-4.821-25.173-16.382-46.148-43.015-51.674-11.561-2.385-24.119-1.348-36.022 0.030 23.782 10.547 28.234 26.645 28.691 53.218 0.081 4.791 0.12 9.587 0.158 14.387 0.076 9.596 0.152 19.196 0.577 28.779 0.31 6.929-1.568 12.228-6.027 17.638-18.457 22.385-31.687 47.36-35.313 76.622-3.022 24.339 8.216 46.217 30.298 57.237 8.576 4.28 17.55 7.766 26.517 11.25 2.953 1.147 5.908 2.295 8.845 3.471 60.63 24.225 98.001 68.535 113.059 131.558 2.377 9.932 3.605 20.138 4.851 30.513 0.576 4.813 1.161 9.67 1.865 14.545 9.097-14.020 14.374-29.23 17.737-45.14 9.182-43.478 25.007-84.152 49.702-121.337 8.708-13.123 12.774-28.040 12.809-43.967 0.098-44.831-15.125-83.891-44.036-117.944-2.304-2.709-4.983-6.293-5.065-9.523-0.457-19.546-0.768-39.125 0-58.654 0.589-14.899 5.308-28.561 17.69-38.882l0.853 0.943c0.866 0.96 1.557 1.724 2.219 2.5 40.034 46.686 67.098 99.802 79.821 160.052 15.061 71.37 8.166 139.824-31.066 202.44-36.279 57.905-88.969 91.781-158.387 92.515-0.798 0.008-1.594 0.012-2.387 0.012zM938.667 712.704c0 3.529-0.422 7.072-1.276 10.555-2.803 11.535-10.125 21.498-20.326 27.676l-97.963 59.327c-10.219 6.187-22.477 8.081-34.099 5.284-11.605-2.792-21.641-10.061-27.861-20.192l-59.746-97.274c-6.234-10.144-8.141-22.316-5.338-33.851 2.825-11.529 10.133-21.484 20.348-27.671l97.967-59.327c10.202-6.178 22.473-8.081 34.078-5.289 11.627 2.797 21.649 10.053 27.883 20.197l59.746 97.274c4.343 7.070 6.588 15.14 6.588 23.29zM836.919 651.715c7.727-4.678 10.172-14.701 5.461-22.371s-14.805-10.099-22.532-5.421c-7.723 4.678-10.172 14.7-5.457 22.371 4.71 7.671 14.805 10.099 22.528 5.421zM744.414 688.67c4.715 7.671 14.805 10.099 22.532 5.421s10.172-14.701 5.457-22.371c-4.71-7.671-14.805-10.099-22.528-5.421-7.727 4.678-10.172 14.701-5.461 22.371zM800.742 702.223c4.71 7.671 14.805 10.1 22.528 5.421 7.727-4.678 10.172-14.701 5.461-22.371s-14.805-10.1-22.532-5.421c-7.723 4.678-10.172 14.701-5.457 22.371zM857.067 715.775c4.71 7.671 14.805 10.099 22.532 5.421 7.723-4.678 10.172-14.7 5.457-22.371-4.71-7.671-14.805-10.099-22.528-5.421-7.727 4.678-10.172 14.701-5.461 22.371zM809.621 763.572c7.727-4.678 10.172-14.701 5.461-22.372s-14.805-10.099-22.532-5.421c-7.723 4.678-10.167 14.701-5.457 22.371s14.805 10.099 22.528 5.421z" />
<glyph unicode="&#xe92c;" glyph-name="chart-trend-up" d="M896 64h-704c-65.792 0-106.667 40.875-106.667 106.667v618.667c0 23.552 19.115 42.667 42.667 42.667s42.667-19.115 42.667-42.667v-618.667c0-19.157 2.176-21.333 21.333-21.333h704c23.552 0 42.667-19.115 42.667-42.667s-19.115-42.667-42.667-42.667zM597.333 277.333v170.667c0 23.552-19.115 42.667-42.667 42.667s-42.667-19.115-42.667-42.667v-170.667c0-23.552 19.115-42.667 42.667-42.667s42.667 19.115 42.667 42.667zM768 234.667c-23.552 0-42.667 19.115-42.667 42.667v256c0 23.552 19.115 42.667 42.667 42.667s42.667-19.115 42.667-42.667v-256c0-23.552-19.115-42.667-42.667-42.667zM341.333 234.667c-23.552 0-42.667 19.115-42.667 42.667v85.333c0 23.552 19.115 42.667 42.667 42.667s42.667-19.115 42.667-42.667v-85.333c0-23.552-19.115-42.667-42.667-42.667zM807.381 805.63c-4.309 10.411-12.629 18.731-23.083 23.083-5.205 2.176-10.752 3.287-16.299 3.287h-128c-23.552 0-42.667-19.115-42.667-42.667s19.115-42.667 42.667-42.667h25.003l-81.835-81.833c-4.096-4.053-11.221-4.096-15.403 0l-49.067 49.068c-37.504 37.547-98.603 37.547-136.064 0l-71.466-71.469c-16.683-16.683-16.683-43.651 0-60.334 8.32-8.32 19.243-12.5 30.165-12.5s21.845 4.18 30.165 12.5l71.467 71.469c4.181 4.181 11.264 4.181 15.403 0l49.067-49.068c37.504-37.504 98.56-37.504 136.064 0l81.835 81.839v-25.005c0-23.552 19.115-42.667 42.667-42.667s42.667 19.115 42.667 42.667v128c0 5.547-1.152 11.092-3.285 16.297z" />
<glyph unicode="&#xe92d;" glyph-name="check" d="M383.991 192.034c-0.043 0-0.085 0-0.171 0-11.392 0.043-22.23 4.604-30.208 12.71l-170.666 173.312c-16.555 16.811-16.341 43.819 0.469 60.331s43.776 16.346 60.331-0.465l140.501-142.677 396.289 396.243c16.683 16.683 43.648 16.683 60.331 0 16.683-16.64 16.683-43.691 0-60.331l-426.668-426.669c-8.021-7.979-18.901-12.454-30.208-12.454z" />
<glyph unicode="&#xe92e;" glyph-name="check-1" d="M306.005 255.002c-22.6 22.596-45.1 45.099-67.7 67.699-35.9 35.9-71.8 71.799-107.7 107.699-8.2 8.201-16.4 16.401-24.5 24.499-9.1 9.101-22.5 14.601-35.4 14.601-12.3 0-26.9-5.402-35.4-14.601-8.7-9.498-15.2-21.999-14.6-35.401 0.6-13.299 5.1-25.801 14.6-35.401l199.9-199.898c9.1-9.101 22.5-14.601 35.4-14.601 12.3 0 26.9 5.402 35.4 14.601 8.7 9.498 15.2 21.999 14.6 35.401-0.5 13.299-5 25.801-14.6 35.401zM706.283 714.195c-8.401-8.4-16.9-16.9-25.301-25.3-20.297-20.3-40.499-40.5-60.8-60.8-24.397-24.4-48.798-48.8-73.097-73.1-21.201-21.2-42.402-42.402-63.603-63.599-10.3-10.3-20.8-20.501-30.899-30.903-0.098-0.098-0.299-0.299-0.401-0.397-9.097-9.101-14.596-22.502-14.596-35.401 0-12.301 5.397-26.901 14.596-35.401 9.502-8.7 22.003-15.202 35.401-14.601 13.303 0.602 25.801 5.099 35.401 14.601l25.301 25.301c20.301 20.297 40.499 40.499 60.8 60.8 24.401 24.397 48.798 48.798 73.101 73.099 21.197 21.2 42.398 42.4 63.599 63.6 10.3 10.3 20.8 20.5 30.899 30.9 0.102 0.1 0.299 0.3 0.401 0.4 9.101 9.1 14.601 22.5 14.601 35.4 0 12.3-5.402 26.9-14.601 35.4-9.502 8.7-21.999 15.2-35.401 14.6-13.299-0.5-25.801-5-35.401-14.6zM917.739 714.195c-15.3-15.3-30.699-30.7-45.999-46-36.599-36.6-73.101-73.1-109.7-109.7-44.403-44.4-88.802-88.799-133.201-133.202-38.101-38.097-76.301-76.297-114.402-114.398-18.496-18.5-36.599-37.5-55.497-55.501-0.602-0.499-1.101-0.998-1.702-1.498 3.401 2.598 6.703 5.197 10.099 7.799-0.397-0.201-0.7-0.401-1.097-0.602 3.998 1.702 8 3.401 11.9 5.001-0.802-0.401-1.6-0.602-2.402-0.7 4.399 0.602 8.9 1.199 13.299 1.801-0.798-0.102-1.698-0.102-2.5 0.098 4.403-0.597 8.9-1.199 13.303-1.801-0.802 0.201-1.6 0.401-2.402 0.802 4.002-1.702 8-3.401 11.9-5.001-0.401 0.201-0.7 0.401-1.101 0.7 3.401-2.598 6.703-5.201 10.103-7.799-10.402 8.9-19.601 19.499-29.303 29.201-18.799 18.799-37.598 37.598-56.397 56.397-22.702 22.703-45.402 45.402-68.002 68.002-15.7 15.701-31.5 31.501-47.2 47.198-9.1 9.101-22.5 14.601-35.4 14.601-12.3 0-26.9-5.397-35.4-14.601-8.7-9.498-15.2-21.999-14.6-35.396 0.6-13.303 5.1-25.801 14.6-35.401 23.7-23.701 47.4-47.403 71.1-71.1l55.5-55.501c24.3-24.303 48-49.301 72.902-72.9 11.2-10.598 24.9-16.802 40.397-17.502 15.701-0.798 31.3 6.003 42.5 16.802 0.802 0.798 1.702 1.698 2.5 2.5 4.702 4.698 9.502 9.498 14.199 14.199 19.401 19.401 38.903 38.899 58.3 58.3 28.501 28.501 57.101 57.101 85.602 85.598 32.299 32.303 64.602 64.602 96.9 96.9 30.699 30.703 61.402 61.402 92.1 92.102 24 24 48 48 72 72l36.198 36.2c0.499 0.5 1.101 1.1 1.6 1.6 9.101 9.1 14.601 22.5 14.601 35.4 0 12.3-5.397 26.9-14.601 35.4-9.498 8.7-21.999 15.2-35.401 14.6-13.197-0.5-25.698-5-35.298-14.6z" />
<glyph unicode="&#xe92f;" glyph-name="check-circle-fill" d="M512 874.667c-84.386 0-166.878-25.024-237.043-71.906s-124.852-113.519-157.145-191.482c-32.294-77.962-40.743-163.752-24.28-246.517s57.099-158.788 116.77-218.462c59.67-59.669 135.695-100.305 218.46-116.766 82.765-16.465 168.555-8.017 246.515 24.277 77.965 32.294 144.602 86.98 191.484 157.146s71.906 152.657 71.906 237.043c-0.119 113.123-45.111 221.577-125.099 301.567-79.991 79.989-188.446 124.98-301.568 125.1zM699.324 523.243l-229.743-229.747c-3.051-3.051-6.669-5.47-10.654-7.121s-8.256-2.505-12.57-2.505c-4.309 0-8.58 0.853-12.565 2.505s-7.605 4.070-10.653 7.121l-98.461 98.462c-6.159 6.161-9.618 14.511-9.618 23.223 0 8.708 3.46 17.062 9.618 23.219s14.511 9.617 23.22 9.617c8.71 0 17.062-3.46 23.22-9.617l75.239-75.281 206.524 206.563c3.051 3.049 6.669 5.469 10.654 7.119s8.256 2.499 12.57 2.499c4.309 0 8.58-0.849 12.565-2.499s7.603-4.070 10.654-7.119c3.051-3.049 5.466-6.669 7.117-10.653s2.5-8.254 2.5-12.567c0-4.312-0.849-8.582-2.5-12.567s-4.066-7.606-7.117-10.652z" />
<glyph unicode="&#xe930;" glyph-name="clock" d="M512 789.333c-67.507 0-133.503-20.019-189.635-57.525s-99.881-90.815-125.716-153.186c-25.835-62.369-32.594-131.002-19.424-197.213 13.17-66.214 45.679-127.031 93.416-174.771 47.736-47.735 108.556-80.243 174.769-93.414 66.21-13.171 134.844-6.409 197.214 19.426s115.678 69.581 153.186 125.713c37.504 56.132 57.523 122.129 57.523 189.636-0.107 90.494-36.105 177.252-100.092 241.241-63.991 63.989-150.746 99.985-241.242 100.092zM627.029 332.971c-5.82-5.815-13.709-9.084-21.939-9.084-8.226 0-16.119 3.268-21.939 9.084l-93.090 93.090c-5.82 5.82-9.088 13.709-9.092 21.939v186.182c0 8.23 3.273 16.122 9.088 21.942 5.82 5.819 13.713 9.088 21.943 9.088s16.124-3.269 21.943-9.088c5.82-5.819 9.088-13.712 9.088-21.942v-173.335l83.998-83.998c5.815-5.82 9.084-13.713 9.084-21.939 0-8.23-3.268-16.119-9.084-21.939z" />
<glyph unicode="&#xe931;" glyph-name="close" d="M580.932 448.013l258.082 258.080c19.063 19.016 19.063 49.926 0 68.942-19.063 19.065-49.882 19.065-68.945 0l-258.082-258.077-258.077 258.077c-19.064 19.065-49.88 19.065-68.945 0-19.065-19.016-19.065-49.926 0-68.942l258.081-258.080-258.081-258.082c-19.065-19.017-19.065-49.924 0-68.941 9.508-9.51 21.99-14.289 34.473-14.289s24.964 4.779 34.472 14.289l258.077 258.078 258.082-258.078c9.506-9.51 21.99-14.289 34.47-14.289 12.484 0 24.964 4.779 34.475 14.289 19.063 19.017 19.063 49.924 0 68.941l-258.082 258.082z" />
<glyph unicode="&#xe932;" glyph-name="uniE932" d="M511.915 64c202.965 0 367.501 171.921 367.501 384 0 212.077-164.535 384-367.501 384-202.963 0-367.498-171.923-367.498-384 0-212.079 164.535-384 367.498-384z" />
<glyph unicode="&#xe933;" glyph-name="uniE933" d="M511.915 104.499c200.896 0 363.75 162.859 363.75 363.75 0 200.894-162.854 363.75-363.75 363.75-200.892 0-363.748-162.857-363.748-363.75s162.856-363.75 363.748-363.75z" />
<glyph unicode="&#xe934;" glyph-name="uniE934" d="M657.152 801.917l-478.802-478.648c-16.050 36.749-26.1 76.646-29.1 118.498l389.25 389.4c41.852-3.15 81.749-13.2 118.652-29.25z" />
<glyph unicode="&#xe935;" glyph-name="uniE935" d="M828.868 646.75l-495.452-495.45c-30.9 17.399-58.8 39.151-83.25 64.499l514.352 514.201c25.199-24.3 46.946-52.35 64.35-83.25z" />
<glyph unicode="&#xe936;" glyph-name="uniE936" d="M749.649 743.683l-512.999-513.002c-7.95 9.301-15.6 19.051-22.65 29.103l506.551 506.549c10.048-7.050 19.802-14.7 29.099-22.65z" />
<glyph unicode="&#xe937;" glyph-name="uniE937" d="M864.252 559.017l-443.102-443.1c-13.35 3.452-26.4 7.65-39.15 12.45l469.802 469.8c4.8-12.75 8.998-25.8 12.45-39.15z" />
<glyph unicode="&#xe938;" glyph-name="uniE938" d="M875.665 468.25c0-2.551 0-4.949-0.149-7.501-3.9 197.401-165.15 356.251-363.601 356.251-198.448 0-359.698-158.85-363.598-356.251 0 2.551-0.15 4.949-0.15 7.501 0 200.85 162.9 363.75 363.748 363.75 200.853 0 363.75-162.9 363.75-363.75z" />
<glyph unicode="&#xe939;" glyph-name="uniE939" d="M807.415 452.501c0-157.35-127.65-285.001-285.001-285.001-88.35 0-167.398 40.35-219.748 103.501 52.050-56.252 126.449-91.503 209.248-91.503 157.35 0 285.001 127.65 285.001 285.001 0 69.001-24.448 132.151-65.25 181.501 46.95-50.85 75.75-118.798 75.75-193.498z" />
<glyph unicode="&#xe93a;" glyph-name="uniE93A" d="M511.915 179.499c157.402 0 285.001 127.599 285.001 285.001s-127.599 285.001-285.001 285.001c-157.399 0-284.998-127.599-284.998-285.001s127.599-285.001 284.998-285.001z" />
<glyph unicode="&#xe93b;" glyph-name="uniE93B" d="M727.915 650.5c-49.95 43.050-114.897 69-185.997 69-157.351 0-285.001-127.65-285.001-285 0-71.1 25.95-136.051 69-186.001-60.6 52.352-99 129.6-99 216 0 157.351 127.65 285.001 284.998 285.001 86.251 0 163.652-38.4 216-99z" />
<glyph unicode="&#xe93c;" glyph-name="uniE93C" d="M515.529 330.129h-69.453v48.341h67.106c16.683 0 30.711 2.957 42.091 8.862 11.469 5.995 20.066 15.245 25.801 27.755 5.82 12.599 8.734 28.843 8.734 48.738 0 19.721-2.914 35.836-8.734 48.346-5.734 12.51-14.289 21.716-25.668 27.624-11.383 5.907-25.412 8.861-42.091 8.861h-68.412v48.345h71.407c26.846 0 49.954-5.343 69.325-16.028 19.375-10.598 34.274-25.844 44.698-45.738 10.513-19.893 15.765-43.697 15.765-71.409 0-27.802-5.252-51.691-15.765-71.671-10.423-19.981-25.412-35.315-44.958-45.999-19.46-10.684-42.739-16.026-69.845-16.026zM477.346 597v-266.871h-56.422v266.871h56.422zM383.917 454.443v32.836h129.918v-32.836h-129.918z" />
<glyph unicode="&#xe93d;" glyph-name="uniE93D" d="M536.947 308.365h-80.759v56.209h78.033c19.392 0 35.708 3.435 48.939 10.304 13.333 6.972 23.334 17.728 29.999 32.273 6.767 14.647 10.15 33.536 10.15 56.666 0 22.929-3.383 41.668-10.15 56.213-6.665 14.546-16.614 25.253-29.85 32.122-13.231 6.869-29.542 10.303-48.939 10.303h-79.543v56.212h83.029c31.211 0 58.082-6.212 80.606-18.636 22.524-12.323 39.851-30.051 51.968-53.182 12.224-23.132 18.334-50.81 18.334-83.032 0-32.32-6.11-60.1-18.334-83.332-12.117-23.232-29.542-41.058-52.271-53.483-22.626-12.425-49.698-18.637-81.212-18.637zM492.553 618.667v-310.302h-65.604v310.302h65.604zM383.917 452.911v38.178h151.059v-38.178h-151.059z" />
<glyph unicode="&#xe93e;" glyph-name="contact" d="M512 874.667c-235.642 0-426.667-191.025-426.667-426.667 0-235.639 191.025-426.667 426.667-426.667 235.639 0 426.667 191.027 426.667 426.667 0 235.642-191.027 426.667-426.667 426.667zM657.097 392l58.79-48.858c45.888-52.681-78.865-216.956-298.915 3.132l-3.339 3.358-3.339 3.319c-220.143 220.164-55.791 344.809-3.133 298.935l48.775-58.778c36.877-36.868-44.202-102.028-47.261-104.486l-0.088-0.073c-5.196-5.214 28.251-47.13 62.525-81.378 34.274-34.244 76.181-67.703 81.399-62.511 0 0 0.038 0.051 0.111 0.141 3.072 3.797 67.797 83.866 104.474 47.198z" />
<glyph unicode="&#xe93f;" glyph-name="copy" d="M682.667 831.255c-3.021 0-292.572 0.745-292.572 0.745-51.59 0-97.523-46.584-97.523-96l-28.184-0.648c-51.566 0-93.721-45.935-93.721-95.351v-480c0-49.417 45.934-96 97.524-96h365.716c51.588 0 97.519 46.583 97.519 96h24.384c51.588 0 97.523 46.583 97.523 96v383.424l-170.667 191.832zM633.907 112h-365.716c-25.6 0-48.762 23.543-48.762 48v480c0 35.712 29.842 48 73.142 48v-432c0-49.417 45.933-96 97.523-96 0 0 264.339 0.265 292.789 0.265 0-29.137-19.405-48.265-48.977-48.265zM682.667 327.735h-219.426c-13.461 0-24.384 10.726-24.384 23.979 0 13.244 10.923 23.974 24.384 23.974h219.426c13.457 0 24.38-10.731 24.38-23.974 0-13.252-10.923-23.979-24.38-23.979zM682.667 447.616h-219.426c-13.461 0-24.384 10.731-24.384 23.974 0 13.248 10.923 23.979 24.384 23.979h219.426c13.457 0 24.38-10.731 24.38-23.979 0-13.222-10.923-23.974-24.38-23.974zM731.426 640c-25.963 0-48.759 23.063-48.759 48 0 0 0 48.625 0 95.256v0.048l121.907-143.304h-73.148z" />
<glyph unicode="&#xe940;" glyph-name="crown" d="M894.711 523.405l-84.237-339.678c-2.453-9.839-7.945-18.547-15.62-24.768-7.676-6.225-17.101-9.609-26.807-9.626h-469.279c-9.706 0.017-19.133 3.401-26.808 9.626-7.676 6.221-13.168 14.929-15.619 24.768l-84.239 339.678c-2.048 8.175-1.902 16.786 0.423 24.881s6.738 15.36 12.754 20.995c6.016 5.635 13.399 9.421 21.338 10.94s16.124 0.714 23.653-2.328l139.578-56.292c1.411-0.572 2.962-0.657 4.423-0.243 1.461 0.418 2.756 1.318 3.693 2.564l120.885 162.303c4.083 5.532 9.318 10.011 15.309 13.092s12.574 4.684 19.247 4.684c6.677 0 13.261-1.602 19.251-4.684s11.226-7.56 15.309-13.092l120.883-162.303c0.939-1.246 2.231-2.146 3.695-2.564 1.459-0.414 3.012-0.329 4.425 0.243l139.575 56.292c7.526 2.909 15.667 3.615 23.548 2.044s15.202-5.361 21.184-10.962c5.978-5.601 10.389-12.803 12.757-20.831s2.603-16.58 0.678-24.738z" />
<glyph unicode="&#xe941;" glyph-name="dark-mode" d="M864.909 228.698c32.068 2.227 56.311-32.371 34.974-56.418-82.146-92.591-202.031-150.946-335.548-150.946-247.655 0-448.418 200.764-448.418 448.418 0 175.745 101.103 327.877 248.319 401.405 28.756 14.362 55.795-18.045 45.282-48.421-15.909-45.97-24.551-95.332-24.551-146.714 0-247.653 200.765-448.417 448.416-448.417 10.598 0 21.111 0.367 31.526 1.092zM618.001 582.985c5.436 2.547 9.86 6.837 12.574 12.19l33.361 65.758c10.3 20.304 39.59 19.436 48.666-1.443l27.332-62.855c2.714-6.246 7.697-11.229 13.943-13.945l58.547-25.458c21.568-9.378 21.568-39.967 0-49.345l-58.547-25.459c-6.246-2.714-11.23-7.697-13.943-13.943l-27.332-62.857c-9.075-20.877-38.366-21.747-48.666-1.442l-33.361 65.758c-2.714 5.35-7.138 9.643-12.574 12.19l-55.599 26.065c-20.646 9.677-20.646 39.043 0 48.721l55.599 26.065z" />
<glyph unicode="&#xe942;" glyph-name="default-icon" d="M512 96c-194.404 0-352 157.598-352 352 0 194.404 157.596 352 352 352 194.402 0 352-157.596 352-352 0-194.402-157.598-352-352-352zM512 32c229.751 0 416 186.249 416 416s-186.249 416-416 416c-229.751 0-416-186.249-416-416s186.249-416 416-416z" />
<glyph unicode="&#xe943;" glyph-name="deposit-history" d="M568.358 807.347c86.46-12.317 166.123-52.805 227.678-116.478 71.569-74.032 110.985-171.526 110.985-274.523 0-105.51-41.088-204.706-115.695-279.313s-173.803-115.695-279.313-115.695c-105.513 0-204.708 41.088-279.316 115.691-74.609 74.607-115.697 173.803-115.697 279.317 0 83.106 25.516 162.621 73.793 229.948 47.232 65.868 112.37 115.028 188.375 142.163 13.004 4.642 27.31-2.135 31.952-15.138 4.642-13.005-2.135-27.308-15.138-31.952-66.378-23.697-123.279-66.648-164.553-124.21-42.15-58.78-64.428-128.218-64.428-200.812 0-190.238 154.773-345.011 345.013-345.011 190.238 0 345.011 154.773 345.007 345.011 0 89.958-34.423 175.113-96.934 239.773-49.562 51.267-112.559 85.323-181.248 98.765l14.161-14.159c9.762-9.763 9.762-25.593 0-35.355-4.881-4.881-11.281-7.323-17.677-7.323-6.4 0-12.796 2.442-17.677 7.323l-63.313 63.31c-9.762 9.763-9.762 25.593 0 35.355l63.313 63.31c9.762 9.762 25.591 9.762 35.354 0 9.766-9.763 9.766-25.592 0-35.355l-24.64-24.643zM512.026 159.612c-141.632 0-256.859 115.23-256.859 256.862s115.225 256.86 256.859 256.86c141.632 0 256.858-115.23 256.858-256.86 0-141.632-115.226-256.862-256.858-256.862zM455.411 428.834c15.125-11.866 35.977-21.892 71.962-34.615 22.848-8.077 22.362-26.526 21.086-34.082-2.598-15.475-15.616-32.196-38.050-32.346-22.788-0.158-29.333 0.879-46.639 12.203-11.55 7.556-27.046 4.322-34.607-7.236-7.558-11.554-4.32-27.051 7.236-34.607 18.662-12.211 32.542-17.331 49.173-19.285v-9.515c0-13.807 11.196-24.998 25.003-24.998s24.998 11.191 24.998 24.998v11.972c12.8 3.691 24.478 10.24 34.5 19.447 14.575 13.389 24.41 31.526 27.695 51.076 6.694 39.812-14.899 75.789-53.734 89.515-21.227 7.505-44.689 16.559-57.771 26.816-3.755 2.94-5.346 9.86-3.959 17.212 0.7 3.721 3.968 16.154 16.606 19.959 21.385 6.447 35.994-2.069 41.289-6.025 11.063-8.265 26.726-6.003 34.995 5.056 8.265 11.059 6.003 26.722-5.056 34.992-4.928 3.682-17.109 11.66-34.564 15.749v8.475c0 13.807-11.191 25-24.998 25s-25.003-11.194-25.003-25v-10.067c-0.166-0.049-0.333-0.094-0.499-0.14-0.196-0.053-0.388-0.106-0.585-0.166-26.342-7.935-46.007-30.382-51.319-58.58-4.898-25.988 3.622-51.209 22.242-65.809z" />
<glyph unicode="&#xe944;" glyph-name="dollar-receive-circle" d="M925.146 554.068c-1.835 7.125-9.344 10.753-16.384 8.62-23.851-7.125-49.536-9.683-75.947-6.995-81.365 8.192-150.784 70.441-167.381 150.526-8.96 43.264-3.029 84.48 12.8 119.552 3.029 6.741 0.384 14.804-6.443 17.62-49.195 20.395-103.3 31.276-159.876 31.276-239.571 0-433.235-197.761-426.494-438.827 6.187-222.592 191.744-408.107 414.338-414.336 241.067-6.741 438.822 186.923 438.822 426.496 0.043 36.651-4.646 72.32-13.436 106.068zM605.956 282.923c-17.28-17.28-39.258-27.819-62.938-31.232v-17.024c0-17.664-14.336-32-32-32s-32 14.336-32 32v17.109c-48.768 7.936-87.464 47.232-93.181 97.835-1.963 17.579 10.666 33.404 28.245 35.366 17.577 2.219 33.367-10.662 35.373-28.241 2.731-24.32 23.211-42.667 47.616-42.667h29.862c12.719 0 24.708 4.992 33.796 14.080s14.080 21.077 14.080 33.792c0 21.973-14.938 41.045-36.314 46.464l-68.604 17.020c-24.32 6.187-45.997 20.314-61.186 39.898-15.104 19.115-23.552 43.605-23.552 68.651 0 55.509 40.747 101.375 93.865 110.036v17.323c0 17.664 14.336 32 32 32s32-14.336 32-32v-16.896c49.664-7.211 89.348-46.761 95.108-98.047 1.963-17.58-10.671-33.405-28.245-35.368-17.54-2.133-33.408 10.662-35.371 28.243-2.731 24.32-23.211 42.667-47.616 42.667h-29.871c-26.411 0-47.868-21.464-47.868-47.875 0-10.708 3.541-21.119 9.941-29.225 6.741-8.704 15.782-14.592 26.364-17.237l68.612-17.020c49.92-12.629 84.736-57.263 84.736-108.548-0.043-29.867-11.691-57.941-32.853-79.104zM961.242 724.052l-85.333-85.333c-2.944-2.944-6.49-5.29-10.415-6.912s-8.064-2.474-12.245-2.474c-4.181 0-8.316 0.852-12.241 2.474s-7.467 3.968-10.411 6.912l-85.333 85.333c-12.501 12.501-12.501 32.77 0 45.271s32.768 12.501 45.269 0l30.716-30.719v136.062c0 17.664 14.336 32 32 32s32-14.336 32-32v-136.062l30.72 30.719c12.501 12.501 32.772 12.501 45.274 0s12.501-32.77 0-45.271z" />
<glyph unicode="&#xe945;" glyph-name="dollar-send-circle" d="M961.28 766.761c-6.229-6.229-14.421-9.385-22.613-9.385s-16.384 3.113-22.613 9.385l-30.72 30.719v-136.104c0-17.664-14.336-32-32-32s-32 14.336-32 32v136.063l-30.72-30.719c-12.501-12.501-32.768-12.501-45.269 0s-12.501 32.769 0 45.271l85.333 85.333c2.944 2.944 6.485 5.29 10.411 6.912 7.808 3.243 16.64 3.243 24.448 0 3.925-1.621 7.467-3.968 10.411-6.912l85.333-85.333c12.501-12.501 12.501-32.728 0-45.229zM938.667 448.043c0-239.573-197.76-433.237-438.827-426.496-222.592 6.187-408.107 191.74-414.336 414.332-6.741 241.069 186.923 438.83 426.496 438.83 56.619 0 110.677-10.881 159.872-31.276 6.827-2.816 9.472-10.878 6.443-17.62-15.829-35.072-21.76-76.288-12.8-119.552 16.555-80.085 86.016-142.334 167.381-150.526 26.411-2.645 52.053-0.131 75.947 6.995 7.040 2.091 14.549-1.537 16.384-8.62 8.747-33.751 13.44-69.417 13.44-106.067zM638.805 361.984c0 51.285-34.773 95.915-84.736 108.544l-68.608 17.024c-10.581 2.645-19.584 8.572-26.368 17.233-6.4 8.107-9.941 18.522-9.941 29.231 0 26.411 21.461 47.87 47.872 47.87h29.867c24.405 0 44.843-18.347 47.616-42.667 1.963-17.581 17.792-30.377 35.371-28.243 17.579 1.963 30.208 17.788 28.245 35.368-5.76 51.285-45.44 90.841-95.104 98.052v16.979c0 17.664-14.336 32-32 32s-32-14.336-32-32v-17.239c-53.12-8.704-93.867-54.527-93.867-110.036 0-25.043 8.405-49.538 23.552-68.653 15.189-19.584 36.864-33.745 61.184-39.889l68.608-17.024c21.376-5.419 36.309-24.533 36.309-46.464 0-12.715-4.992-24.704-14.080-33.792s-21.077-14.080-33.792-14.080h-29.867c-24.405 0-44.843 18.347-47.616 42.667-1.963 17.579-17.835 30.464-35.37 28.245-17.579-1.963-30.208-17.792-28.246-35.371 5.675-50.645 44.416-89.946 93.184-97.839v-17.19c0-17.664 14.336-32 32-32s32 14.336 32 32v16.977c23.68 3.456 45.653 13.956 62.933 31.236 21.205 21.205 32.853 49.28 32.853 79.061z" />
<glyph unicode="&#xe946;" glyph-name="down" d="M534.69 340.049l170.667 170.667c6.229 6.229 9.382 14.421 9.382 22.613s-3.11 16.385-9.382 22.614c-12.501 12.501-32.772 12.501-45.274 0l-148.049-148.050-148.054 148.050c-12.501 12.501-32.77 12.501-45.271 0s-12.501-32.769 0-45.27l170.665-170.667c12.591-12.459 32.815-12.459 45.316 0.043z" />
<glyph unicode="&#xe947;" glyph-name="event" d="M128 561.778v42.667c0.043 33.935 14.061 66.468 38.98 90.464s58.703 37.495 93.943 37.536h44.308v-42.667c0-15.088 6.224-29.558 17.303-40.227s26.106-16.663 41.774-16.663c15.668 0 30.695 5.994 41.774 16.663s17.303 25.139 17.303 40.227v42.667h177.23v-42.667c0-15.088 6.225-29.558 17.306-40.227 11.076-10.669 26.103-16.663 41.771-16.663 15.671 0 30.694 5.994 41.775 16.663s17.306 25.139 17.306 40.227v42.667h44.305c35.243-0.041 69.026-13.541 93.943-37.536s38.938-56.529 38.98-90.464v-42.667h-768zM334.769 689.778c0-7.544 3.112-14.779 8.652-20.113s13.053-8.331 20.887-8.331c7.834 0 15.347 2.997 20.887 8.331s8.652 12.57 8.652 20.113v71.111c0 7.544-3.112 14.779-8.652 20.113s-13.053 8.331-20.887 8.331c-7.834 0-15.347-2.997-20.887-8.331s-8.652-12.57-8.652-20.113v-71.111zM630.153 760.889v-71.111c0-7.544 3.115-14.779 8.653-20.113s13.052-8.331 20.885-8.331c7.838 0 15.347 2.997 20.89 8.331 5.538 5.335 8.649 12.57 8.649 20.113v71.111c0 7.544-3.11 14.779-8.649 20.113-5.542 5.334-13.052 8.331-20.89 8.331-7.834 0-15.347-2.997-20.885-8.331s-8.653-12.57-8.653-20.113zM896 533.333v-298.667c-0.043-33.937-14.063-66.466-38.98-90.462s-58.701-37.495-93.943-37.538h-502.153c-35.24 0.043-69.024 13.542-93.943 37.538s-38.937 56.525-38.98 90.462v298.667h768zM619.917 372.493h-60.979l-18.876 55.851c-1.941 5.692-5.7 10.645-10.739 14.161-5.039 3.511-11.102 5.402-17.323 5.402s-12.284-1.89-17.323-5.402c-5.039-3.516-8.798-8.469-10.739-14.161l-18.846-55.851h-61.011c-6.238 0.004-12.317-1.899-17.364-5.427-5.047-3.533-8.805-8.512-10.733-14.225s-1.929-11.866-0.002-17.579c1.927-5.713 5.684-10.692 10.731-14.225l49.345-34.517-18.847-55.851c-1.929-5.713-1.929-11.866-0.001-17.579 1.928-5.717 5.684-10.697 10.732-14.225 5.047-3.533 11.127-5.431 17.365-5.431s12.318 1.903 17.361 5.436l49.331 34.517 49.331-34.517c5.043-3.533 11.123-5.436 17.361-5.436s12.318 1.899 17.365 5.431c5.047 3.529 8.806 8.508 10.731 14.225 1.929 5.713 1.929 11.866 0 17.579l-18.846 55.851 49.344 34.517c5.047 3.533 8.802 8.512 10.731 14.225s1.929 11.866 0 17.579c-1.929 5.713-5.687 10.692-10.735 14.225-5.047 3.529-11.123 5.431-17.365 5.427z" />
<glyph unicode="&#xe948;" glyph-name="evo" d="M213.43 328.235c0 25.549 0.198 51.098-0.092 76.646-0.118 10.176 2.158 15.317 9.396 16.64 20.201 3.708 40.387 7.744 60.495 12.501 28.307 6.699 56.824 11.183 85.131 18.057 13.37 3.243 26.859 6.289 40.335 8.175 16.594 2.308 32.927 7.104 49.469 9.822 26.095 4.292 51.981 11.183 77.982 16.657 32.508 6.818 65.050 13.261 97.57 19.959 23.62 4.873 47.215 9.882 70.822 14.874 4.211 0.892 6.054-0.836 4.173-7.339-6.686-23.142-13.436-46.246-20.041-69.427-6.857-24.038-13.53-48.171-20.373-72.183-3.554-12.484-7.223-24.909-11.012-37.239-1.344-4.348-3.925-6.989-7.159-7.706-17.306-3.827-34.598-7.902-51.955-11.243-32.137-6.195-64.209-13.184-96.329-19.452-28.203-5.517-56.299-12.173-84.567-17.011-29.123-4.966-58.048-12.348-87.091-18.304-28.833-5.905-57.719-11.243-86.565-17.028-6.935-1.399-13.791-3.806-20.713-5.338-7.685-1.711-9.080 0.038-9.12 11.315-0.092 25.882-0.026 51.742-0.026 77.623-0.118 0-0.224 0-0.329 0zM213.36 552.814c0 26.831 0.040 53.662-0.026 80.474-0.026 9.067 2.501 13.804 8.87 16.017 16.358 5.669 32.544 12.503 48.809 18.832 13.528 5.262 27.057 10.484 40.598 15.648 15.239 5.824 30.504 11.474 45.73 17.337 22.214 8.542 44.401 17.163 66.588 25.86 20.909 8.212 41.756 16.697 62.68 24.793 9.28 3.592 18.701 6.31 27.989 9.862 14.37 5.514 28.663 11.474 43.021 17.105 15.198 5.941 30.438 11.649 45.653 17.551 15.62 6.057 31.215 12.289 46.848 18.366 14.37 5.572 28.766 11.008 43.149 16.541 14.805 5.689 29.598 11.455 44.39 17.163 9.289 3.572 18.594 7.009 27.857 10.659 10.752 4.233 21.423 8.989 32.256 12.814 3.857 1.359 8.986 5.359 11.819 0.466 2.931-5.067-0.883-11.163-2.517-16.755-8.474-29.064-16.619-58.341-25.028-87.444-8.909-30.811-18.581-61.195-26.688-92.453-3.422-13.183-9.092-16.677-17.331-19.492-20.215-6.912-40.162-15.454-60.271-23.065-15.633-5.941-31.373-11.338-47.019-17.24-14.831-5.572-29.585-11.552-44.403-17.182-16.303-6.193-32.661-12.134-48.969-18.327-27.738-10.542-55.441-21.318-83.196-31.782-15.266-5.747-30.635-10.872-45.9-16.581-20.569-7.689-41.072-15.706-61.627-23.492-16.923-6.404-33.886-12.561-50.797-19.042-14.397-5.517-28.623-12.079-43.138-16.755-10.251-3.302-19.963-9.574-30.491-11.145-7.567-1.126-8.554-0.252-8.567 10.773-0.040 26.833 0 53.683 0 80.513l-0.29-0.020zM390.893 21.333c-55.889 0-111.779 0-167.668 0-9.001 0-9.791 0.99-9.804 14.289-0.066 50.769-0.105 101.538-0.079 152.307 0 12.036 1.013 13.419 9.054 13.419 114.188-0.021 228.387-0.060 342.575-0.098 14.686 0 29.372 0.115 44.045 0 7.172-0.060 8.964-3.401 6.199-13.124-6.75-23.782-14.016-47.258-20.911-70.963-7.066-24.286-13.965-48.708-20.911-73.075-1.604-5.649-3.213-11.298-4.608-17.045-1.118-4.582-3.575-5.342-6.289-5.436-5.696-0.175-11.396-0.252-17.092-0.252-51.507 0-103.002-0.021-154.511-0.021z" />
<glyph unicode="&#xe949;" glyph-name="eye-slash" d="M505.506 567.534l122.15-127.325 0.585 6.669c0 66.897-52.16 121.262-116.339 121.262l-6.396-0.606zM511.902 648.981c107.029 0 193.894-90.544 193.894-202.107 0-26.069-5.039-50.931-13.764-73.766l113.429-118.234c58.556 50.931 104.704 116.817 133.205 192-67.281 177.449-232.674 303.159-426.761 303.159-54.293 0-106.255-10.105-154.535-28.294l83.764-87.107c21.905 8.892 45.756 14.349 70.767 14.349zM124.112 759.13l106.061-110.552c-63.985-52.143-114.592-121.465-144.84-201.699 67.088-177.451 232.674-303.159 426.569-303.159 60.109 0 117.5 12.126 170.048 34.155l129.523-135.206 49.442 51.332-687.36 716.668-49.443-51.537zM338.561 535.802l59.913-62.45c-1.745-8.691-2.909-17.382-2.909-26.475 0-66.897 52.157-121.263 116.336-121.263 8.725 0 17.062 1.212 25.207 3.029l59.913-62.451c-25.788-13.338-54.481-21.423-85.12-21.423-107.029 0-193.895 90.543-193.895 202.108 0 31.932 7.757 61.845 20.554 88.925z" />
<glyph unicode="&#xe94a;" glyph-name="filter" d="M234.583 832h554.669c35.328 0 64-28.672 64-64v-96.298c0-16.981-6.741-33.237-18.731-45.269l-218.5-218.496c-11.989-11.989-18.731-28.288-18.731-45.269v-298.667l-170.665 128v170.667c0 16.981-6.74 33.237-18.729 45.269l-218.495 218.496c-11.989 11.989-18.735 28.288-18.735 45.269v96.298c-0.085 35.328 28.589 64 63.917 64z" />
</font>
</defs>
</svg>
